Posted by Yuri on June 22nd, 2024 in 1080p-Bluray
Every man’s dream comes true for William Thacker, an unsuccessful Notting Hill bookstore owner, when Anna Scott, the world’s most beautiful woman and best-liked actress, enters his shop. A little later, he still can’t believe it himself, William runs into her again – this time spilling orange juice over her. Anna accepts his offer to change in his nearby apartment, and thanks him with a kiss, which seems to surprise her even more than him. Eventually, Anna and William get to know each other better over the months, but being together with the world’s most wanted woman is not easy – neither around your closest friends, nor in front of the all-devouring press.
Cast: Hugh Grant, Julia Roberts, Richard McCabe
iMDB Rating: 7.2/10 (344K Votes) | PG-13
Genre: Comedy / Drama / Romance
Video: 8.75 GB | Matroska | 10095 Kbps | 1920×800 | 2.40:1 | 8 bits | 23.976 fps | V_MPEG4/ISO/AVC
Audio: English | A_AC3 at 640 Kbps | 6 channel | 48 Khz
Posted by Yuri on June 22nd, 2024 in 1080p-Bluray
A creative writing assignment yields complex results between a teacher and his talented student.
Cast: Martin Freeman, Jenna Ortega, Bashir Salahuddin
iMDB Rating: 5.2/10 (13K Votes) | R
Genre: Comedy / Drama
Video: 9.81 GB | Matroska | 14997 Kbps | 1920×956 | 2.008:1 | 8 bits | 23.976 fps | V_MPEG4/ISO/AVC
Audio: English | A_DTS at 3406 Kbps | 6 channel | 48 Khz
Posted by Yuri on June 21st, 2024 in 1080p-Bluray
An anonymous young man unleashes a campaign of vengeance against the corrupt leaders who murdered his mother and continue to systematically victimize the poor and powerless.
Cast: Dev Patel, Sharlto Copley, Pitobash
iMDB Rating: 6.9/10 (52K Votes) | R
Genre: Action / Crime / Thriller
Video: 16.5 GB | Matroska | 19428 Kbps | 1920×804 | 2.40:1 | 8 bits | 23.976 fps | V_MPEG4/ISO/AVC
Audio: English | A_TRUEHD at 2761 Kbps | 8 channel | 48 Khz
Posted by Yuri on June 21st, 2024 in 1080p-Bluray
A novelist who’s fed up with the establishment profiting from Black entertainment uses a pen name to write a book that propels him into the heart of the hypocrisy and madness he claims to disdain.
Cast: Jeffrey Wright, Tracee Ellis Ross, John Ortiz
iMDB Rating: 7.5/10 (86K Votes) | R
Genre: Comedy / Drama
Video: 14.18 GB | Matroska | 17399 Kbps | 1920×816 | 2.40:1 | 8 bits | 23.976 fps | V_MPEG4/ISO/AVC
Audio: English | A_DTS at 3354 Kbps | 6 channel | 48 Khz
Posted by Yuri on June 21st, 2024 in 1080p-Bluray
The British military recruits a small group of highly skilled soldiers to strike against German forces behind enemy lines during World War II.
Cast: Henry Cavill, Alan Ritchson, Alex Pettyfer
iMDB Rating: 6.9/10 (35K Votes) | R
Genre: Action / Drama / War
Video: 19.57 GB | Matroska | 23273 Kbps | 1920×800 | 2.40:1 | 8 bits | 23.976 fps | V_MPEG4/ISO/AVC
Audio: English | A_TRUEHD at 4179 Kbps | 8 channel | 48 Khz
Posted by Yuri on June 21st, 2024 in 1080p-Bluray
When the discovery of an ancient artifact unleashes an evil force, Ghostbusters new and old must join forces to protect their home and save the world from a second ice age.
Cast: Paul Rudd, Carrie Coon, Finn Wolfhard
iMDB Rating: 6.1/10 (49K Votes) | PG-13
Genre: Adventure / Comedy / Fantasy
Video: 10.33 GB | Matroska | 12847 Kbps | 1920×804 | 2.40:1 | 8 bits | 23.976 fps | V_MPEG4/ISO/AVC
Audio: English | A_DTS at 2278 Kbps | 6 channel | 48 Khz
Posted by Yuri on June 21st, 2024 in 1080p-Bluray
A team of special agents discovers a revolutionary new computer program to bait and trap online predators. After teaming up with the program’s troubled developer, they soon find that the AI is rapidly advancing beyond its original…
Cast: Tatum Matthews, Lance Henriksen, Sinda Nichols
iMDB Rating: 6.6/10 (9.8K Votes) | N/A
Genre: Mystery / Sci-Fi / Thriller
Video: 7.3 GB | Matroska | 11179 Kbps | 1920×804 | 2.40:1 | 8 bits | 23.976 fps | V_MPEG4/ISO/AVC
Audio: English | A_DTS at 1198 Kbps | 6 channel | 48 Khz
Posted by Yuri on June 19th, 2024 in 1080p-Bluray
[csize]Release Size: 6.55 GB[/csize] [new_image][/new_image] [mediainfo]General
Unique ID : 77269699870688732359194520274032724505 (0x3A219A562DA8E8B1120BD86CCA110A19)
Complete name : Wanderlust.1080p.BluRay.X264-BLOW.mkv
Format : Matroska
Format version : Version 2
File size : 6.55 GiB
Duration : 1 h 38 min
Overall bit rate : 9 562 kb/s
Movie name : Wanderlust.1080p.BluRay.X264-BLOW
Encoded date : UTC 2012-06-07 03:37:10
Writing application : mkvmerge v5.0.1 (‘Es ist Sommer’) built on Oct 9 2011 16:57:02
Writing library : libebml v1.2.2 + libmatroska v1.3.0

Video
ID : 1
Format : AVC
Format/Info : Advanced Video Codec
Format profile : [email protected]
Format settings : CABAC / 4 Ref Frames
Format settings, CABAC : Yes
Format settings, Reference frames : 4 frames
Muxing mode : Header stripping
Codec ID : V_MPEG4/ISO/AVC
Duration : 1 h 38 min
Bit rate : 8 064 kb/s
Width : 1 920 pixels
Height : 1 040 pixels
Display aspect ratio : 1.85:1
Frame rate mode : Constant
Frame rate : 23.976 (24000/1001) FPS
Color space : YUV
Chroma subsampling : 4:2:0
Bit depth : 8 bits
Scan type : Progressive
Bits/(Pixel*Frame) : 0.168
Stream size : 5.39 GiB (82%)
Writing library : x264 core 125 r2200 999b753
Encoding settings : cabac=1 / ref=4 / deblock=1:0:0 / analyse=0x3:0x133 / me=umh / subme=7 / psy=1 / psy_rd=1.00:0.00 / mixed_ref=1 / me_range=16 / chroma_me=1 / trellis=1 / 8x8dct=1 / cqm=0 / deadzone=21,11 / fast_pskip=0 / chroma_qp_offset=-2 / threads=12 / lookahead_threads=2 / sliced_threads=0 / nr=0 / decimate=1 / interlaced=0 / bluray_compat=0 / constrained_intra=0 / bframes=3 / b_pyramid=2 / b_adapt=1 / b_bias=0 / direct=1 / weightb=1 / open_gop=0 / weightp=2 / keyint=250 / keyint_min=23 / scenecut=40 / intra_refresh=0 / rc_lookahead=40 / rc=2pass / mbtree=1 / bitrate=8064 / ratetol=1.0 / qcomp=0.60 / qpmin=0 / qpmax=69 / qpstep=4 / cplxblur=20.0 / qblur=0.5 / ip_ratio=1.40 / aq=1:1.00
Language : English
Default : Yes
Forced : No

Audio
ID : 2
Format : DTS
Format/Info : Digital Theater Systems
Muxing mode : Header stripping
Codec ID : A_DTS
Duration : 1 h 38 min
Bit rate mode : Constant
Bit rate : 1 509 kb/s
Channel(s) : 6 channels
Channel layout : C L R Ls Rs LFE
Sampling rate : 48.0 kHz
Frame rate : 93.750 FPS (512 SPF)
Bit depth : 24 bits
Compression mode : Lossy
Stream size : 1.03 GiB (16%)
Default : Yes
Forced : No[/mediainfo]

Download from RapidGator
Download from MultiUp
[/sharebb]
Wanderlust.1080p.BluRay.X264-BLOW ~ 6.55 GB

Video: 6.55 GB | Matroska | 9562 Kbps | 1920×1040 | 1.846:1 | 8 bits | 23.976 fps | V_MPEG4/ISO/AVC
Audio: Unknown language | A_DTS at 1509 Kbps | 6 channel | 48 Khz
Posted by Yuri on June 18th, 2024 in 1080p-Bluray
Two young men are trying to make their way in a corporation. One on charm, the other on hard work. When they go to the president (Bernie) with a serious financial error on a printout, he pretends to be thrilled and invites them to his beach house for the weekend. He actually plans on having them killed. Bernie is also fooling around with the girlfriend of his mafia partner. When the partner has Bernie killed, the boys end up having to pretend Bernie is still alive as the frustrated hit man tries time and time again to complete the job.
Cast: Andrew McCarthy, Jonathan Silverman, Catherine Mary Stewart
iMDB Rating: 6.4/10 (63K Votes) | PG-13
Genre: Adventure / Comedy / Crime
Video: 6.55 GB | Matroska | 9470 Kbps | 1920×1080 | 16:9 | 8 bits | 23.976 fps | V_MPEG4/ISO/AVC
Audio: Unknown language | A_AC3 at 448 Kbps | 2 channel | 48 Khz
Posted by Yuri on June 18th, 2024 in 1080p-Bluray
Three friends, whose lives have been drifting apart, reunite for the funeral of a fourth childhood friend. When looking through their childhood belongings, they discover a trunk which contained details on a quest their friend was attempting. It revealed that he was hot on the trail of the $200,000 that went missing with airplane hijacker D.B. Cooper in 1971. They decide to continue his journey, but do not understand the dangers they will soon encounter.
Cast: Matthew Lillard, Seth Green, Dax Shepard
iMDB Rating: 5.8/10 (50K Votes) | PG-13
Genre: Adventure / Comedy / Mystery
Video: 7.95 GB | Matroska | 11507 Kbps | 1920×816 | 2.40:1 | 8 bits | 23.976 fps | V_MPEG4/ISO/AVC
Audio: Unknown language | A_AC3 at 640 Kbps | 6 channel | 48 Khz