Weird Or What S02 1080p AMZN WEBRip DDP5 1 x264-squalor

Weird or What? is a series on the Discovery Channel and History hosted by William Shatner. Each episode contains three separate stories of the bizarre and unexplained. As the show unfolds, it weighs various supernatural and scientific theories that attempt to explain the story, and sometimes features tests conducted as proof of a theory’s plausibility. The show features strange occurrences such as ghosts, aliens, monsters, medical oddities and natural disasters.
Download

Weird Or What S02 1080p AMZN WEBRip DDP5 1 x264-squalor – 31.68 GB
part01.rar | N/AxN/A | N/A | N/A at N/A
Links: RapidGatorMultiUP (Google Drive, Uptobox, 1fichier)
Pass: qbgl&5-7bu

Episode List
Weird.Or.What.S02E01.1080p.WEB-DL.DDP5.1.H.264-squalor.mkv ~ 3.159 GiB
Weird.Or.What.S02E02.1080p.WEB-DL.DDP5.1.H.264-squalor.mkv ~ 3.131 GiB
Weird.Or.What.S02E03.1080p.WEB-DL.DDP5.1.H.264-squalor.mkv ~ 3.132 GiB
Weird.Or.What.S02E04.1080p.WEB-DL.DDP5.1.H.264-squalor.mkv ~ 3.192 GiB
Weird.Or.What.S02E05.1080p.WEB-DL.DDP5.1.H.264-squalor.mkv ~ 3.157 GiB
Weird.Or.What.S02E06.1080p.WEB-DL.DDP5.1.H.264-squalor.mkv ~ 3.164 GiB
Weird.Or.What.S02E07.1080p.WEB-DL.DDP5.1.H.264-squalor.mkv ~ 3.196 GiB
Weird.Or.What.S02E08.1080p.WEB-DL.DDP5.1.H.264-squalor.mkv ~ 3.165 GiB
Weird.Or.What.S02E09.1080p.WEB-DL.DDP5.1.H.264-squalor.mkv ~ 3.198 GiB
Weird.Or.What.S02E10.1080p.WEB-DL.DDP5.1.H.264-squalor.mkv ~ 3.181 GiB
MediaInfo
General
Unique ID : 189797013176660278621077937491253801219 (0x8EC99339F6ECEA0E49703AC2E4323103)
Complete name : Weird.Or.What.S02E10.1080p.WEB-DL.DDP5.1.H.264-squalor.mkv
Format : Matroska
Format version : Version 4
File size : 3.18 GiB
Duration : 44 min 19 s
Overall bit rate : 10.3 Mb/s
Movie name : Weird.Or.What.S02E10.1080p.WEB-DL.DDP5.1.H.264-squalor
Encoded date : UTC 2022-06-22 19:15:56
Writing application : mkvmerge v65.0.0 (‘Too Much’) 64-bit
Writing library : libebml v1.4.2 + libmatroska v1.6.3

Video
ID : 1
Format : AVC
Format/Info : Advanced Video Codec
Format profile : [email protected]
Format settings : CABAC / 4 Ref Frames
Format settings, CABAC : Yes
Format settings, Reference frames : 4 frames
Codec ID : V_MPEG4/ISO/AVC
Duration : 44 min 19 s
Bit rate mode : Constant
Bit rate : 10 000 kb/s
Width : 1 920 pixels
Height : 1 080 pixels
Display aspect ratio : 16:9
Frame rate mode : Constant
Frame rate : 30.000 FPS
Color space : YUV
Chroma subsampling : 4:2:0
Bit depth : 8 bits
Scan type : Progressive
Bits/(Pixel*Frame) : 0.161
Stream size : 2.98 GiB (94%)
Default : Yes
Forced : No
Color range : Limited
Color primaries : BT.709
Transfer characteristics : BT.709
Matrix coefficients : BT.709

Audio
ID : 2
Format : E-AC-3
Format/Info : Enhanced AC-3
Commercial name : Dolby Digital Plus
Codec ID : A_EAC3
Duration : 44 min 19 s
Bit rate mode : Constant
Bit rate : 640 kb/s
Channel(s) : 6 channels
Channel layout : L R C LFE Ls Rs
Sampling rate : 48.0 kHz
Frame rate : 31.250 FPS (1536 SPF)
Compression mode : Lossy
Stream size : 203 MiB (6%)
Language : English
Service kind : Complete Main
Default : Yes
Forced : No

Text
ID : 3
Format : UTF-8
Codec ID : S_TEXT/UTF8
Codec ID/Info : UTF-8 Plain Text
Duration : 43 min 38 s
Bit rate : 100 b/s
Count of elements : 759
Stream size : 32.1 KiB (0%)
Language : English
Default : No
Forced : No

Direct Link Download

Leave a Reply

Your email address will not be published.