Misfits S02 1080p BluRay x264-TENEIGHTY

When five young outsiders on Community Service get caught in a strange storm, they discover that they have developed superpowers.
Download

Misfits S02 1080p BluRay x264-TENEIGHTY – 22.92 GB
part1.rar | N/AxN/A | N/A | N/A at N/A
Links: RapidGatorMultiUP (Google Drive, Uptobox, 1fichier)
Pass: 0quoqjb9

Episode List
Misfits.S02E01.1080p.BluRay.x264-TENEIGHTY.mkv ~ 3.274 GiB
Misfits.S02E02.1080p.BluRay.x264-TENEIGHTY.mkv ~ 3.275 GiB
Misfits.S02E03.1080p.BluRay.x264-TENEIGHTY.mkv ~ 3.274 GiB
Misfits.S02E04.1080p.BluRay.x264-TENEIGHTY.mkv ~ 3.274 GiB
Misfits.S02E05.1080p.BluRay.x264-TENEIGHTY.mkv ~ 3.275 GiB
Misfits.S02E06.1080p.BluRay.x264-TENEIGHTY.mkv ~ 3.274 GiB
Misfits.S02E07.1080p.BluRay.x264-TENEIGHTY.mkv ~ 3.274 GiB
MediaInfo
General
Unique ID : 244838906504475316552354366056655330502 (0xB8324216B1F15D40986FBB81C7859CC6)
Complete name : Misfits.S02E07.1080p.BluRay.x264-TENEIGHTY.mkv
Format : Matroska
Format version : Version 2
File size : 3.27 GiB
Duration : 45 min 25 s
Overall bit rate : 10.3 Mb/s
Movie name : Misfits.S02E07.1080p.BluRay.x264-TENEIGHTY
Encoded date : UTC 2011-03-16 21:53:44
Writing application : mkvmerge v4.6.0 (‘Still Crazy After All These Years’) built on Mar 10 2011 02:50:32
Writing library : libebml v1.2.0 + libmatroska v1.1.0

Video
ID : 1
Format : AVC
Format/Info : Advanced Video Codec
Format profile : [email protected]
Format settings : CABAC / 4 Ref Frames
Format settings, CABAC : Yes
Format settings, Reference frames : 4 frames
Muxing mode : Header stripping
Codec ID : V_MPEG4/ISO/AVC
Duration : 45 min 25 s
Bit rate : 10.1 Mb/s
Width : 1 920 pixels
Height : 1 080 pixels
Display aspect ratio : 16:9
Frame rate mode : Constant
Frame rate : 25.000 FPS
Color space : YUV
Chroma subsampling : 4:2:0
Bit depth : 8 bits
Scan type : Progressive
Bits/(Pixel*Frame) : 0.196
Stream size : 3.15 GiB (96%)
Writing library : x264 core 114 r1913 5fd3dce
Encoding settings : cabac=1 / ref=4 / deblock=1:0:0 / analyse=0x3:0x133 / me=umh / subme=8 / psy=1 / psy_rd=1.00:0.00 / mixed_ref=1 / me_range=16 / chroma_me=1 / trellis=1 / 8x8dct=1 / cqm=0 / deadzone=21,11 / fast_pskip=0 / chroma_qp_offset=-2 / threads=18 / sliced_threads=0 / nr=0 / decimate=1 / interlaced=0 / constrained_intra=0 / bframes=3 / b_pyramid=2 / b_adapt=1 / b_bias=0 / direct=1 / weightb=1 / open_gop=0 / weightp=2 / keyint=250 / keyint_min=25 / scenecut=40 / intra_refresh=0 / rc_lookahead=40 / rc=2pass / mbtree=1 / bitrate=10135 / ratetol=1.0 / qcomp=0.60 / qpmin=0 / qpmax=69 / qpstep=4 / cplxblur=20.0 / qblur=0.5 / ip_ratio=1.40 / aq=1:1.00
Language : English
Default : Yes
Forced : No

Audio
ID : 2
Format : AC-3
Format/Info : Audio Coding 3
Commercial name : Dolby Digital
Muxing mode : Header stripping
Codec ID : A_AC3
Duration : 45 min 25 s
Bit rate mode : Constant
Bit rate : 192 kb/s
Channel(s) : 2 channels
Channel layout : L R
Sampling rate : 48.0 kHz
Frame rate : 31.250 FPS (1536 SPF)
Compression mode : Lossy
Stream size : 62.4 MiB (2%)
Service kind : Complete Main
Default : Yes
Forced : No

Direct Link Download

Leave a Reply

Your email address will not be published.