Chrissys Court S02 720p ROKU WEBRip DD5 1 x264-WELP

Chrissy Teigen reigns supreme as the “judge” over small claims cases. The plaintiffs, defendants, and disputes are real, as Chrissy’s mom turned “bailiff,” Pepper Thai, maintains order in the courtroom.
Download

Chrissys Court S02 720p ROKU WEBRip DD5 1 x264-WELP – 1.05 GB
rar | N/AxN/A | N/A | N/A at N/A
Links: RapidGatorMultiUP (Google Drive, Uptobox, 1fichier)
Pass: asexye*{01

Episode List
Chrissys.Court.S02E01.720p.ROKU.WEB-DL.DD5.1.H.264-WELP.mkv ~ 100.6 MiB
Chrissys.Court.S02E02.720p.ROKU.WEB-DL.DD5.1.H.264-WELP.mkv ~ 124.1 MiB
Chrissys.Court.S02E03.720p.ROKU.WEB-DL.DD5.1.H.264-WELP.mkv ~ 107.1 MiB
Chrissys.Court.S02E04.720p.ROKU.WEB-DL.DD5.1.H.264-WELP.mkv ~ 83.24 MiB
Chrissys.Court.S02E05.720p.ROKU.WEB-DL.DD5.1.H.264-WELP.mkv ~ 110.2 MiB
Chrissys.Court.S02E06.720p.ROKU.WEB-DL.DD5.1.H.264-WELP.mkv ~ 150.7 MiB
Chrissys.Court.S02E07.720p.ROKU.WEB-DL.DD5.1.H.264-WELP.mkv ~ 101.9 MiB
Chrissys.Court.S02E08.720p.ROKU.WEB-DL.DD5.1.H.264-WELP.mkv ~ 94.56 MiB
Chrissys.Court.S02E09.720p.ROKU.WEB-DL.DD5.1.H.264-WELP.mkv ~ 101.9 MiB
Chrissys.Court.S02E10.720p.ROKU.WEB-DL.DD5.1.H.264-WELP.mkv ~ 97.84 MiB
MediaInfo
General
Unique ID : 206921316769449381705480998348597343812 (0x9BAB989419B037979182746CB135B644)
Complete name : Chrissys.Court.S02E10.720p.ROKU.WEB-DL.DD5.1.H.264-WELP.mkv
Format : Matroska
Format version : Version 4
File size : 97.8 MiB
Duration : 7 min 56 s
Overall bit rate mode : Variable
Overall bit rate : 1 723 kb/s
Movie name : Chrissys.Court.S02E10.720p.ROKU.WEB-DL.DD5.1.H.264-WELP
Writing application : mkvmerge v68.0.0 (‘The Curtain’) 64-bit
Writing library : libebml v1.4.2 + libmatroska v1.6.4

Video
ID : 1
Format : AVC
Format/Info : Advanced Video Codec
Format profile : [email protected]
Format settings : CABAC / 3 Ref Frames
Format settings, CABAC : Yes
Format settings, Reference frames : 3 frames
Codec ID : V_MPEG4/ISO/AVC
Duration : 7 min 56 s
Bit rate mode : Variable
Bit rate : 1 336 kb/s
Maximum bit rate : 3 372 kb/s
Width : 1 280 pixels
Height : 720 pixels
Display aspect ratio : 16:9
Frame rate mode : Constant
Frame rate : 23.976 (24000/1001) FPS
Color space : YUV
Chroma subsampling : 4:2:0
Bit depth : 8 bits
Scan type : Progressive
Bits/(Pixel*Frame) : 0.060
Stream size : 75.9 MiB (78%)
Default : Yes
Forced : No
Color range : Limited
Color primaries : BT.709
Matrix coefficients : BT.709

Audio
ID : 2
Format : AC-3
Format/Info : Audio Coding 3
Commercial name : Dolby Digital
Codec ID : A_AC3
Duration : 7 min 56 s
Bit rate mode : Constant
Bit rate : 384 kb/s
Channel(s) : 6 channels
Channel layout : L R C LFE Ls Rs
Sampling rate : 48.0 kHz
Frame rate : 31.250 FPS (1536 SPF)
Compression mode : Lossy
Stream size : 21.8 MiB (22%)
Language : English
Service kind : Complete Main
Default : Yes
Forced : No

Text #1
ID : 3
Format : UTF-8
Codec ID : S_TEXT/UTF8
Codec ID/Info : UTF-8 Plain Text
Duration : 7 min 47 s
Bit rate : 124 b/s
Count of elements : 197
Stream size : 7.11 KiB (0%)
Language : English
Default : No
Forced : No

Text #2
ID : 4
Format : UTF-8
Codec ID : S_TEXT/UTF8
Codec ID/Info : UTF-8 Plain Text
Duration : 7 min 51 s
Bit rate : 130 b/s
Count of elements : 208
Stream size : 7.52 KiB (0%)
Title : SDH
Language : English
Default : No
Forced : No

Direct Link Download

Leave a Reply

Your email address will not be published.