Chrissys Court S01 720p ROKU WEBRip DD5 1 x264-WELP

Chrissy Teigen reigns supreme as the “judge” over small claims cases. The plaintiffs, defendants, and disputes are real, as Chrissy’s mom turned “bailiff,” Pepper Thai, maintains order in the courtroom.
Download

Chrissys Court S01 720p ROKU WEBRip DD5 1 x264-WELP – 963.83 MB
rar | N/AxN/A | N/A | N/A at N/A
Links: RapidGatorMultiUP (Google Drive, Uptobox, 1fichier)
Pass: $u4pjr^l8h

Episode List
Chrissys.Court.S01E01.720p.ROKU.WEB-DL.DD5.1.H.264-WELP.mkv ~ 72.11 MiB
Chrissys.Court.S01E02.720p.ROKU.WEB-DL.DD5.1.H.264-WELP.mkv ~ 83.81 MiB
Chrissys.Court.S01E03.720p.ROKU.WEB-DL.DD5.1.H.264-WELP.mkv ~ 89.05 MiB
Chrissys.Court.S01E04.720p.ROKU.WEB-DL.DD5.1.H.264-WELP.mkv ~ 84.78 MiB
Chrissys.Court.S01E05.720p.ROKU.WEB-DL.DD5.1.H.264-WELP.mkv ~ 76.26 MiB
Chrissys.Court.S01E06.720p.ROKU.WEB-DL.DD5.1.H.264-WELP.mkv ~ 81.57 MiB
Chrissys.Court.S01E07.720p.ROKU.WEB-DL.DD5.1.H.264-WELP.mkv ~ 76.07 MiB
Chrissys.Court.S01E08.720p.ROKU.WEB-DL.DD5.1.H.264-WELP.mkv ~ 69.15 MiB
Chrissys.Court.S01E09.720p.ROKU.WEB-DL.DD5.1.H.264-WELP.mkv ~ 102.2 MiB
Chrissys.Court.S01E10.720p.ROKU.WEB-DL.DD5.1.H.264-WELP.mkv ~ 81.00 MiB
Chrissys.Court.S01E11.720p.ROKU.WEB-DL.DD5.1.H.264-WELP.mkv ~ 70.41 MiB
Chrissys.Court.S01E12.720p.ROKU.WEB-DL.DD5.1.H.264-WELP.mkv ~ 77.02 MiB
MediaInfo
General
Unique ID : 161836351901238388052558154086449253699 (0x79C08C30EF85B6FC6673D7C0958D8D43)
Complete name : Chrissys.Court.S01E12.720p.ROKU.WEB-DL.DD5.1.H.264-WELP.mkv
Format : Matroska
Format version : Version 4
File size : 77.0 MiB
Duration : 5 min 50 s
Overall bit rate mode : Variable
Overall bit rate : 1 842 kb/s
Movie name : Chrissys.Court.S01E12.720p.ROKU.WEB-DL.DD5.1.H.264-WELP
Writing application : mkvmerge v68.0.0 (‘The Curtain’) 64-bit
Writing library : libebml v1.4.2 + libmatroska v1.6.4

Video
ID : 1
Format : AVC
Format/Info : Advanced Video Codec
Format profile : [email protected]
Format settings : CABAC / 3 Ref Frames
Format settings, CABAC : Yes
Format settings, Reference frames : 3 frames
Codec ID : V_MPEG4/ISO/AVC
Duration : 5 min 50 s
Bit rate mode : Variable
Bit rate : 1 456 kb/s
Maximum bit rate : 3 372 kb/s
Width : 1 280 pixels
Height : 720 pixels
Display aspect ratio : 16:9
Frame rate mode : Constant
Frame rate : 23.976 (24000/1001) FPS
Color space : YUV
Chroma subsampling : 4:2:0
Bit depth : 8 bits
Scan type : Progressive
Bits/(Pixel*Frame) : 0.066
Stream size : 60.9 MiB (79%)
Default : Yes
Forced : No
Color range : Limited
Color primaries : BT.709
Transfer characteristics : BT.709
Matrix coefficients : BT.709

Audio
ID : 2
Format : AC-3
Format/Info : Audio Coding 3
Commercial name : Dolby Digital
Codec ID : A_AC3
Duration : 5 min 50 s
Bit rate mode : Constant
Bit rate : 384 kb/s
Channel(s) : 6 channels
Channel layout : L R C LFE Ls Rs
Sampling rate : 48.0 kHz
Frame rate : 31.250 FPS (1536 SPF)
Compression mode : Lossy
Stream size : 16.1 MiB (21%)
Language : English
Service kind : Complete Main
Default : Yes
Forced : No

Text #1
ID : 3
Format : UTF-8
Codec ID : S_TEXT/UTF8
Codec ID/Info : UTF-8 Plain Text
Duration : 5 min 46 s
Bit rate : 104 b/s
Count of elements : 137
Stream size : 4.41 KiB (0%)
Language : English
Default : No
Forced : No

Text #2
ID : 4
Format : UTF-8
Codec ID : S_TEXT/UTF8
Codec ID/Info : UTF-8 Plain Text
Duration : 5 min 46 s
Bit rate : 115 b/s
Count of elements : 151
Stream size : 4.90 KiB (0%)
Title : SDH
Language : English
Default : No
Forced : No

Text #3
ID : 5
Format : UTF-8
Codec ID : S_TEXT/UTF8
Codec ID/Info : UTF-8 Plain Text
Duration : 5 min 47 s
Bit rate : 78 b/s
Count of elements : 130
Stream size : 3.34 KiB (0%)
Language : Spanish
Default : No
Forced : No

Direct Link Download

Leave a Reply

Your email address will not be published.