Chrissys Court S01 1080p ROKU WEBRip DD5 1 x264-WELP

Chrissy Teigen reigns supreme as the “judge” over small claims cases. The plaintiffs, defendants, and disputes are real, as Chrissy’s mom turned “bailiff,” Pepper Thai, maintains order in the courtroom.
Download

Chrissys Court S01 1080p ROKU WEBRip DD5 1 x264-WELP – 2.13 GB
rar | N/AxN/A | N/A | N/A at N/A
Links: RapidGatorMultiUP (Google Drive, Uptobox, 1fichier)
Pass: [email protected];d8

Episode List
Chrissys.Court.S01E01.1080p.ROKU.WEB-DL.DD5.1.H.264-WELP.mkv ~ 157.8 MiB
Chrissys.Court.S01E02.1080p.ROKU.WEB-DL.DD5.1.H.264-WELP.mkv ~ 184.7 MiB
Chrissys.Court.S01E03.1080p.ROKU.WEB-DL.DD5.1.H.264-WELP.mkv ~ 208.5 MiB
Chrissys.Court.S01E04.1080p.ROKU.WEB-DL.DD5.1.H.264-WELP.mkv ~ 188.3 MiB
Chrissys.Court.S01E05.1080p.ROKU.WEB-DL.DD5.1.H.264-WELP.mkv ~ 166.1 MiB
Chrissys.Court.S01E06.1080p.ROKU.WEB-DL.DD5.1.H.264-WELP.mkv ~ 187.1 MiB
Chrissys.Court.S01E07.1080p.ROKU.WEB-DL.DD5.1.H.264-WELP.mkv ~ 180.9 MiB
Chrissys.Court.S01E08.1080p.ROKU.WEB-DL.DD5.1.H.264-WELP.mkv ~ 155.3 MiB
Chrissys.Court.S01E09.1080p.ROKU.WEB-DL.DD5.1.H.264-WELP.mkv ~ 238.2 MiB
Chrissys.Court.S01E10.1080p.ROKU.WEB-DL.DD5.1.H.264-WELP.mkv ~ 180.6 MiB
Chrissys.Court.S01E11.1080p.ROKU.WEB-DL.DD5.1.H.264-WELP.mkv ~ 159.2 MiB
Chrissys.Court.S01E12.1080p.ROKU.WEB-DL.DD5.1.H.264-WELP.mkv ~ 174.7 MiB
MediaInfo
General
Unique ID : 9416232098278247477415041357609611179 (0x7158016077348268945620AC71EAFAB)
Complete name : Chrissys.Court.S01E12.1080p.ROKU.WEB-DL.DD5.1.H.264-WELP.mkv
Format : Matroska
Format version : Version 4
File size : 175 MiB
Duration : 5 min 50 s
Overall bit rate mode : Variable
Overall bit rate : 4 178 kb/s
Movie name : Chrissys.Court.S01E12.1080p.ROKU.WEB-DL.DD5.1.H.264-WELP
Writing application : mkvmerge v68.0.0 (‘The Curtain’) 64-bit
Writing library : libebml v1.4.2 + libmatroska v1.6.4

Video
ID : 1
Format : AVC
Format/Info : Advanced Video Codec
Format profile : [email protected]
Format settings : CABAC / 3 Ref Frames
Format settings, CABAC : Yes
Format settings, Reference frames : 3 frames
Codec ID : V_MPEG4/ISO/AVC
Duration : 5 min 50 s
Bit rate mode : Variable
Bit rate : 3 791 kb/s
Maximum bit rate : 5 495 kb/s
Width : 1 920 pixels
Height : 1 080 pixels
Display aspect ratio : 16:9
Frame rate mode : Constant
Frame rate : 23.976 (24000/1001) FPS
Color space : YUV
Chroma subsampling : 4:2:0
Bit depth : 8 bits
Scan type : Progressive
Bits/(Pixel*Frame) : 0.076
Stream size : 159 MiB (91%)
Default : Yes
Forced : No
Color range : Limited
Color primaries : BT.709
Transfer characteristics : BT.709
Matrix coefficients : BT.709

Audio
ID : 2
Format : AC-3
Format/Info : Audio Coding 3
Commercial name : Dolby Digital
Codec ID : A_AC3
Duration : 5 min 50 s
Bit rate mode : Constant
Bit rate : 384 kb/s
Channel(s) : 6 channels
Channel layout : L R C LFE Ls Rs
Sampling rate : 48.0 kHz
Frame rate : 31.250 FPS (1536 SPF)
Compression mode : Lossy
Stream size : 16.1 MiB (9%)
Language : English
Service kind : Complete Main
Default : Yes
Forced : No

Text #1
ID : 3
Format : UTF-8
Codec ID : S_TEXT/UTF8
Codec ID/Info : UTF-8 Plain Text
Duration : 5 min 46 s
Bit rate : 104 b/s
Count of elements : 137
Stream size : 4.41 KiB (0%)
Language : English
Default : No
Forced : No

Text #2
ID : 4
Format : UTF-8
Codec ID : S_TEXT/UTF8
Codec ID/Info : UTF-8 Plain Text
Duration : 5 min 46 s
Bit rate : 115 b/s
Count of elements : 151
Stream size : 4.90 KiB (0%)
Title : SDH
Language : English
Default : No
Forced : No

Text #3
ID : 5
Format : UTF-8
Codec ID : S_TEXT/UTF8
Codec ID/Info : UTF-8 Plain Text
Duration : 5 min 47 s
Bit rate : 78 b/s
Count of elements : 130
Stream size : 3.34 KiB (0%)
Language : Spanish
Default : No
Forced : No

Direct Link Download

Leave a Reply

Your email address will not be published.