WWE Evil S01 720p PCOK WEBRip DDP5 1 x264-KOGi

A “psychological exposé” into the minds of the most diabolical antagonists in WWE history and their impact on mainstream culture.
Download

WWE Evil S01 720p PCOK WEBRip DDP5 1 x264-KOGi – 12.46 GB
part1.rar | N/AxN/A | N/A | N/A at N/A
Links: RapidGatorMultiUP (Google Drive, Uptobox, 1fichier)
Pass: 5ocifhd(.4

Episode List
WWE.Evil.S01E01.720p.WEB.h264-KOGi.mkv ~ 1.564 GiB
WWE.Evil.S01E02.720p.WEB.h264-KOGi.mkv ~ 1.657 GiB
WWE.Evil.S01E03.720p.WEB.h264-KOGi.mkv ~ 1.374 GiB
WWE.Evil.S01E04.720p.WEB.h264-KOGi.mkv ~ 1.531 GiB
WWE.Evil.S01E05.720p.WEB.h264-KOGi.mkv ~ 1.384 GiB
WWE.Evil.S01E06.720p.WEB.h264-KOGi.mkv ~ 1.571 GiB
WWE.Evil.S01E07.720p.WEB.h264-KOGi.mkv ~ 1.610 GiB
WWE.Evil.S01E08.720p.WEB.h264-KOGi.mkv ~ 1.768 GiB
MediaInfo
General
Unique ID : 83899140469076388696277082175379923233 (0x3F1E62FE5CFB1EF0474DA5A3937CE121)
Complete name : WWE.Evil.S01E08.720p.WEB.h264-KOGi.mkv
Format : Matroska
Format version : Version 4
File size : 1.77 GiB
Duration : 52 min 6 s
Overall bit rate : 4 858 kb/s
Movie name : WWE.Evil.S01E08.720p.WEB.h264-KOGi
Writing application : mkvmerge v66.0.0 (‘Josie’) 64-bit
Writing library : libebml v1.4.2 + libmatroska v1.6.4

Video
ID : 1
Format : AVC
Format/Info : Advanced Video Codec
Format profile : [email protected]
Format settings : CABAC / 4 Ref Frames
Format settings, CABAC : Yes
Format settings, Reference frames : 4 frames
Codec ID : V_MPEG4/ISO/AVC
Duration : 52 min 6 s
Bit rate : 4 814 kb/s
Width : 1 280 pixels
Height : 720 pixels
Display aspect ratio : 16:9
Frame rate mode : Constant
Frame rate : 23.976 (24000/1001) FPS
Color space : YUV
Chroma subsampling : 4:2:0
Bit depth : 8 bits
Scan type : Progressive
Bits/(Pixel*Frame) : 0.218
Stream size : 1.70 GiB (96%)
Writing library : x264 core 163 r3060 5db6aa6
Encoding settings : cabac=1 / ref=4 / deblock=1:0:0 / analyse=0x3:0x113 / me=umh / subme=7 / psy=1 / psy_rd=0.00:0.00 / mixed_ref=1 / me_range=16 / chroma_me=1 / trellis=1 / 8x8dct=1 / cqm=0 / deadzone=21,11 / fast_pskip=0 / chroma_qp_offset=0 / threads=22 / lookahead_threads=3 / sliced_threads=0 / nr=0 / decimate=1 / interlaced=0 / bluray_compat=0 / constrained_intra=0 / bframes=16 / b_pyramid=2 / b_adapt=1 / b_bias=0 / direct=1 / weightb=1 / open_gop=0 / weightp=2 / keyint=48 / keyint_min=4 / scenecut=0 / intra_refresh=0 / rc_lookahead=40 / rc=2pass / mbtree=1 / bitrate=4814 / ratetol=1.0 / qcomp=0.60 / qpmin=10 / qpmax=51 / qpstep=4 / cplxblur=20.0 / qblur=0.5 / vbv_maxrate=4814 / vbv_bufsize=4814 / nal_hrd=none / filler=0 / ip_ratio=1.41 / aq=1:1.00
Language : English
Default : Yes
Forced : No
Color range : Limited
Color primaries : BT.709
Transfer characteristics : BT.709
Matrix coefficients : BT.709

Audio
ID : 2
Format : E-AC-3
Format/Info : Enhanced AC-3
Commercial name : Dolby Digital Plus
Codec ID : A_EAC3
Duration : 52 min 6 s
Bit rate mode : Constant
Bit rate : 192 kb/s
Channel(s) : 6 channels
Channel layout : L R C LFE Ls Rs
Sampling rate : 48.0 kHz
Frame rate : 31.250 FPS (1536 SPF)
Compression mode : Lossy
Stream size : 71.6 MiB (4%)
Language : English
Service kind : Complete Main
Default : Yes
Forced : No

Text #1
ID : 3
Format : UTF-8
Codec ID : S_TEXT/UTF8
Codec ID/Info : UTF-8 Plain Text
Duration : 51 min 54 s
Bit rate : 116 b/s
Count of elements : 1132
Stream size : 44.2 KiB (0%)
Title : English
Language : English
Default : No
Forced : No

Text #2
ID : 4
Format : UTF-8
Codec ID : S_TEXT/UTF8
Codec ID/Info : UTF-8 Plain Text
Duration : 51 min 54 s
Bit rate : 105 b/s
Count of elements : 1028
Stream size : 39.9 KiB (0%)
Title : Spanish
Language : Spanish
Default : No
Forced : No

Direct Link Download

Leave a Reply

Your email address will not be published.