Tyler Perrys The Oval S03 720p AMZN WEBRip DDP2 0 x264-MIXED

A seemingly perfect interracial first family becomes the White House’s newest residents. But behind closed doors they unleash a torrent of lies, cheating and corruption.
Download

Tyler Perrys The Oval S03 720p AMZN WEBRip DDP2 0 x264-MIXED – 20.83 GB
part1.rar | N/AxN/A | N/A | N/A at N/A
Links: RapidGatorMultiUP (Google Drive, Uptobox, 1fichier)
Pass: yyji4c_9y^

Episode List
Tyler.Perrys.The.Oval.S03E01.720p.AMZN.WEB-DL.DDP2.0.H.264-FLUX.mkv ~ 1.055 GiB
Tyler.Perrys.The.Oval.S03E02.720p.AMZN.WEB-DL.DDP2.0.H.264-FLUX.mkv ~ 949.4 MiB
Tyler.Perrys.The.Oval.S03E03.720p.AMZN.WEB-DL.DDP2.0.H.264-FLUX.mkv ~ 934.8 MiB
Tyler.Perrys.The.Oval.S03E04.720p.AMZN.WEB-DL.DDP2.0.H.264-FLUX.mkv ~ 1022.0 MiB
Tyler.Perrys.The.Oval.S03E05.720p.AMZN.WEB-DL.DDP2.0.H.264-FLUX.mkv ~ 993.3 MiB
Tyler.Perrys.The.Oval.S03E06.720p.AMZN.WEB-DL.DDP2.0.H.264-NOSiViD.mkv ~ 969.2 MiB
Tyler.Perrys.The.Oval.S03E07.720p.AMZN.WEB-DL.DDP2.0.H.264-NOSiViD.mkv ~ 944.3 MiB
Tyler.Perrys.The.Oval.S03E08.720p.AMZN.WEB-DL.DDP2.0.H.264-NOSiViD.mkv ~ 1012.0 MiB
Tyler.Perrys.The.Oval.S03E09.720p.AMZN.WEB-DL.DDP2.0.H.264-NOSiViD.mkv ~ 941.9 MiB
Tyler.Perrys.The.Oval.S03E10.720p.AMZN.WEB-DL.DDP2.0.H.264-NOSiViD.mkv ~ 1021.4 MiB
Tyler.Perrys.The.Oval.S03E11.720p.AMZN.WEB-DL.DDP2.0.H.264-NOSiViD.mkv ~ 1020.4 MiB
Tyler.Perrys.The.Oval.S03E12.720p.AMZN.WEB-DL.DDP2.0.H.264-NOSiViD.mkv ~ 1.082 GiB
Tyler.Perrys.The.Oval.S03E13.720p.AMZN.WEB-DL.DDP2.0.H.264-NOSiViD.mkv ~ 1006.7 MiB
Tyler.Perrys.The.Oval.S03E14.720p.AMZN.WEB-DL.DDP2.0.H.264-NOSiViD.mkv ~ 933.9 MiB
Tyler.Perrys.The.Oval.S03E15.720p.AMZN.WEB-DL.DDP2.0.H.264-NOSiViD.mkv ~ 912.8 MiB
Tyler.Perrys.The.Oval.S03E16.720p.AMZN.WEB-DL.DDP2.0.H.264-NOSiViD.mkv ~ 834.5 MiB
Tyler.Perrys.The.Oval.S03E17.720p.AMZN.WEB-DL.DDP2.0.H.264-NOSiViD.mkv ~ 981.5 MiB
Tyler.Perrys.The.Oval.S03E18.720p.AMZN.WEB-DL.DDP2.0.H.264-NOSiViD.mkv ~ 889.4 MiB
Tyler.Perrys.The.Oval.S03E19.720p.AMZN.WEB-DL.DDP2.0.H.264-NOSiViD.mkv ~ 974.4 MiB
Tyler.Perrys.The.Oval.S03E20.720p.AMZN.WEB-DL.DDP2.0.H.264-NOSiViD.mkv ~ 929.8 MiB
Tyler.Perrys.The.Oval.S03E21.720p.AMZN.WEB-DL.DDP2.0.H.264-NOSiViD.mkv ~ 865.2 MiB
Tyler.Perrys.The.Oval.S03E22.720p.AMZN.WEB-DL.DDP2.0.H.264-NOSiViD.mkv ~ 1003.8 MiB
MediaInfo
General
Unique ID : 196640853487754884990272386763596248065 (0x93EFA69AF8F7411744D7F6E05CE43401)
Complete name : Tyler.Perrys.The.Oval.S03E22.720p.AMZN.WEB-DL.DDP2.0.H.264-NOSiViD.mkv
Format : Matroska
Format version : Version 4
File size : 1 004 MiB
Duration : 42 min 54 s
Overall bit rate : 3 271 kb/s
Movie name : Tyler.Perrys.The.Oval.S03E22.720p.AMZN.WEB-DL.DDP2.0.H.264-NOSiViD / Tyler PerryΓÇÖs The Oval – S03E22 – Road Kill
Writing application : mkvmerge v64.0.0 (‘Willows’) 64-bit
Writing library : libebml v1.4.2 + libmatroska v1.6.4
IMDB : tt10580092
TMDB : tv/95004
TVDB : 367658

Video
ID : 1
Format : AVC
Format/Info : Advanced Video Codec
Format profile : [email protected]
Format settings : CABAC / 4 Ref Frames
Format settings, CABAC : Yes
Format settings, Reference frames : 4 frames
Codec ID : V_MPEG4/ISO/AVC
Duration : 42 min 54 s
Bit rate mode : Constant
Bit rate : 3 045 kb/s
Nominal bit rate : 6 000 kb/s
Width : 1 280 pixels
Height : 720 pixels
Display aspect ratio : 16:9
Frame rate mode : Constant
Frame rate : 23.976 (24000/1001) FPS
Color space : YUV
Chroma subsampling : 4:2:0
Bit depth : 8 bits
Scan type : Progressive
Bits/(Pixel*Frame) : 0.138
Stream size : 934 MiB (93%)
Default : No
Forced : No
Color range : Limited
Color primaries : BT.709
Transfer characteristics : BT.709
Matrix coefficients : BT.709

Audio
ID : 2
Format : E-AC-3
Format/Info : Enhanced AC-3
Commercial name : Dolby Digital Plus
Codec ID : A_EAC3
Duration : 42 min 54 s
Bit rate mode : Constant
Bit rate : 224 kb/s
Channel(s) : 2 channels
Channel layout : L R
Sampling rate : 48.0 kHz
Frame rate : 31.250 FPS (1536 SPF)
Compression mode : Lossy
Stream size : 68.7 MiB (7%)
Language : English
Service kind : Complete Main
Default : No
Forced : No

Text #1
ID : 3
Format : UTF-8
Codec ID : S_TEXT/UTF8
Codec ID/Info : UTF-8 Plain Text
Duration : 41 min 58 s
Bit rate : 68 b/s
Count of elements : 746
Stream size : 21.2 KiB (0%)
Language : English
Default : No
Forced : No

Text #2
ID : 4
Format : UTF-8
Codec ID : S_TEXT/UTF8
Codec ID/Info : UTF-8 Plain Text
Duration : 42 min 42 s
Bit rate : 70 b/s
Count of elements : 774
Stream size : 22.1 KiB (0%)
Title : SDH
Language : English
Default : No
Forced : No

Menu
00:02:48.000 : Intro
00:42:21.000 : Credits

Direct Link Download

Leave a Reply

Your email address will not be published.