Topside 2022 HDRip XviD AC3-EVO

Deep in the underbelly of New York City, a five year-old girl and her mother live among a community that has claimed the abandoned subway tunnels as their home. After a sudden police-mandated eviction, the pair are forced to flee aboveground into a brutal winter night. Determined to return home, they fight to find shelter as their world is thrown into chaos.
Download

Topside 2022 HDRip XviD AC3-EVO – 1.32 GB
avi | 720×388 | 2097 Kbps | A_AC3 at 384 Kbps
Links: RapidGatorMultiUP (Google Drive, Uptobox, 1fichier)
Pass: 4y1+x8kwwtw)1q

MediaInfo
General
Unique ID : 77664464127440544151939648835011671141 (0x3A6DA1B799EAE9CF74395F0BB076F465)
Complete name : Topside.2022.HDRip.XviD.AC3-EVO.avi
Format : Matroska
Format version : Version 4
File size : 1.32 GiB
Duration : 1 h 30 min
Overall bit rate : 2 097 kb/s
Encoded date : UTC 2022-03-25 04:30:32
Writing application : mkvmerge v35.0.0 (‘All The Love In The World’) 64-bit
Writing library : libebml v1.3.9 + libmatroska v1.5.2
FileExtension_Invalid : mkv mk3d mka mks

Video
ID : 1
Format : AVC
Format/Info : Advanced Video Codec
Format profile : [email protected]
Format settings : CABAC / 4 Ref Frames
Format settings, CABAC : Yes
Format settings, Reference frames : 4 frames
Codec ID : V_MPEG4/ISO/AVC
Duration : 1 h 30 min
Bit rate : 1 725 kb/s
Width : 720 pixels
Height : 388 pixels
Display aspect ratio : 1.85:1
Frame rate mode : Constant
Frame rate : 23.976 (24000/1001) FPS
Color space : YUV
Chroma subsampling : 4:2:0
Bit depth : 8 bits
Scan type : Progressive
Bits/(Pixel*Frame) : 0.258
Stream size : 1.08 GiB (82%)
Writing library : x264 core 164 r3079 d9a19f0
Encoding settings : cabac=1 / ref=1 / deblock=1:0:0 / analyse=0x3:0x113 / me=hex / subme=2 / psy=1 / psy_rd=1.00:0.00 / mixed_ref=0 / me_range=16 / chroma_me=1 / trellis=0 / 8x8dct=1 / cqm=0 / deadzone=21,11 / fast_pskip=1 / chroma_qp_offset=0 / threads=12 / lookahead_threads=3 / sliced_threads=0 / nr=0 / decimate=1 / interlaced=0 / bluray_compat=0 / constrained_intra=0 / bframes=3 / b_pyramid=2 / b_adapt=1 / b_bias=0 / direct=1 / weightb=1 / open_gop=0 / weightp=1 / keyint=250 / keyint_min=23 / scenecut=40 / intra_refresh=0 / rc_lookahead=10 / rc=abr / mbtree=1 / bitrate=1725 / ratetol=1.0 / qcomp=0.60 / qpmin=0 / qpmax=69 / qpstep=4 / ip_ratio=1.40 / aq=1:1.00
Default : Yes
Forced : No
Color range : Limited
Color primaries : BT.709
Transfer characteristics : BT.709
Matrix coefficients : BT.709

Audio
ID : 2
Format : AC-3
Format/Info : Audio Coding 3
Commercial name : Dolby Digital
Codec ID : A_AC3
Duration : 1 h 30 min
Bit rate mode : Constant
Bit rate : 384 kb/s
Channel(s) : 6 channels
Channel layout : L R C LFE Ls Rs
Sampling rate : 48.0 kHz
Frame rate : 31.250 FPS (1536 SPF)
Compression mode : Lossy
Stream size : 248 MiB (18%)
Language : English
Service kind : Complete Main
Default : Yes
Forced : No

Direct Link Download

Leave a Reply

Your email address will not be published.