This is Going to Hurt S01 1080p AMZN WEBRip DDP5 1 x264-MIXED

The unvarnished truth of life as a doctor working in obstetrics and gynaecology.
Download

This is Going to Hurt S01 1080p AMZN WEBRip DDP5 1 x264-MIXED – 22.73 GB
part1.rar | N/AxN/A | N/A | N/A at N/A
Links: RapidGatorMultiUP (Google Drive, Uptobox, 1fichier)
Pass: ud5%[email protected]

Episode List
This.is.Going.to.Hurt.S01E01.1080p.AMZN.WEB-DL.DD5.1.H.264-NOGRP.mkv ~ 3.381 GiB
This.is.Going.to.Hurt.S01E02.1080p.AMZN.WEB-DL.DD5.1.H.264-Cinefeel.mkv ~ 3.172 GiB
This.is.Going.to.Hurt.S01E03.1080p.AMZN.WEB-DL.DD5.1.H.264-Cinefeel.mkv ~ 3.309 GiB
This.is.Going.to.Hurt.S01E04.1080p.AMZN.WEB-DL.DD5.1.H.264-Cinefeel.mkv ~ 3.132 GiB
This.is.Going.to.Hurt.S01E05.1080p.AMZN.WEB-DL.DD5.1.H.264-Cinefeel.mkv ~ 3.321 GiB
This.is.Going.to.Hurt.S01E06.1080p.AMZN.WEB-DL.DD5.1.H.264-Cinefeel.mkv ~ 3.107 GiB
This.is.Going.to.Hurt.S01E07.1080p.AMZN.WEB-DL.DD5.1.H.264-Cinefeel.mkv ~ 3.307 GiB
MediaInfo
General
Unique ID : 92709973649031259683293648680652280982 (0x45BF4A9BC5CCBB54645FFB610DB69496)
Complete name : This.is.Going.to.Hurt.S01E07.1080p.AMZN.WEB-DL.DD5.1.H.264-Cinefeel.mkv
Format : Matroska
Format version : Version 4
File size : 3.31 GiB
Duration : 45 min 27 s
Overall bit rate : 10.4 Mb/s
Movie name : This.is.Going.to.Hurt.S01E07.1080p.AMZN.WEB-DL.DD5.1.H.264-Cinefeel
Encoded date : UTC 2022-03-23 21:11:14
Writing application : mkvmerge v62.0.0 (‘Apollo’) 64-bit
Writing library : libebml v1.4.2 + libmatroska v1.6.4

Video
ID : 1
Format : AVC
Format/Info : Advanced Video Codec
Format profile : [email protected]
Format settings : CABAC / 4 Ref Frames
Format settings, CABAC : Yes
Format settings, Reference frames : 4 frames
Codec ID : V_MPEG4/ISO/AVC
Duration : 45 min 27 s
Bit rate mode : Constant
Bit rate : 10 000 kb/s
Width : 1 920 pixels
Height : 1 080 pixels
Display aspect ratio : 16:9
Frame rate mode : Constant
Frame rate : 25.000 FPS
Color space : YUV
Chroma subsampling : 4:2:0
Bit depth : 8 bits
Scan type : Progressive
Bits/(Pixel*Frame) : 0.193
Stream size : 3.10 GiB (94%)
Default : Yes
Forced : No
Color range : Limited
Color primaries : BT.709
Transfer characteristics : BT.709
Matrix coefficients : BT.709

Audio
ID : 2
Format : E-AC-3
Format/Info : Enhanced AC-3
Commercial name : Dolby Digital Plus
Codec ID : A_EAC3
Duration : 45 min 27 s
Bit rate mode : Constant
Bit rate : 640 kb/s
Channel(s) : 6 channels
Channel layout : L R C LFE Ls Rs
Sampling rate : 48.0 kHz
Frame rate : 31.250 FPS (1536 SPF)
Compression mode : Lossy
Stream size : 208 MiB (6%)
Language : English
Service kind : Complete Main
Default : Yes
Forced : No

Text
ID : 3
Format : UTF-8
Codec ID : S_TEXT/UTF8
Codec ID/Info : UTF-8 Plain Text
Duration : 44 min 42 s
Bit rate : 73 b/s
Count of elements : 858
Stream size : 24.0 KiB (0%)
Title : British (SDH)
Language : English
Default : No
Forced : No

Direct Link Download

Leave a Reply

Your email address will not be published.