Star Trek Picard S02E04 720p AMZN WEB-DL DDP5 1 H 264-NTb

Set twenty years after the events of Star Trek Nemesis, we follow the now-retired Admiral Picard into the next chapter of his life.
Download

Star Trek Picard S02E04 720p AMZN WEB-DL DDP5 1 H 264-NTb – 1.21 GB
mkv | 1280×720 | 3612 Kbps | A_EAC3 at 640 Kbps
Links: RapidGatorMultiUP (Google Drive, Uptobox, 1fichier)
Pass: gt1u7:ti#u

MediaInfo
General
Unique ID : 265663347593752215380447354538331094520 (0xC7DCE64DDE9FDE49C4216888A2B23DF8)
Complete name : Star.Trek.Picard.S02E04.720p.AMZN.WEB-DL.DDP5.1.H.264-NTb.mkv
Format : Matroska
Format version : Version 4
File size : 1.20 GiB
Duration : 47 min 44 s
Overall bit rate : 3 613 kb/s
Writing application : mkvmerge v64.0.0 (‘Willows’) 64-bit
Writing library : libebml v1.4.2 + libmatroska v1.6.3

Video
ID : 1
Format : AVC
Format/Info : Advanced Video Codec
Format profile : [email protected]
Format settings : CABAC / 4 Ref Frames
Format settings, CABAC : Yes
Format settings, Reference frames : 4 frames
Codec ID : V_MPEG4/ISO/AVC
Duration : 47 min 44 s
Bit rate mode : Constant
Bit rate : 2 967 kb/s
Nominal bit rate : 4 000 kb/s
Width : 1 280 pixels
Height : 720 pixels
Display aspect ratio : 16:9
Frame rate mode : Constant
Frame rate : 23.976 (24000/1001) FPS
Color space : YUV
Chroma subsampling : 4:2:0
Bit depth : 8 bits
Scan type : Progressive
Bits/(Pixel*Frame) : 0.134
Stream size : 1 013 MiB (82%)
Default : Yes
Forced : No
Color range : Limited
Color primaries : BT.709
Transfer characteristics : BT.709
Matrix coefficients : BT.709

Audio
ID : 2
Format : E-AC-3
Format/Info : Enhanced AC-3
Commercial name : Dolby Digital Plus
Codec ID : A_EAC3
Duration : 47 min 44 s
Bit rate mode : Constant
Bit rate : 640 kb/s
Channel(s) : 6 channels
Channel layout : L R C LFE Ls Rs
Sampling rate : 48.0 kHz
Frame rate : 31.250 FPS (1536 SPF)
Compression mode : Lossy
Stream size : 219 MiB (18%)
Language : English
Service kind : Complete Main
Default : Yes
Forced : No

Text #1
ID : 3
Format : UTF-8
Codec ID : S_TEXT/UTF8
Codec ID/Info : UTF-8 Plain Text
Duration : 18 s 268 ms
Bit rate : 47 b/s
Count of elements : 4
Stream size : 109 Bytes (0%)
Title : Forced
Language : English
Default : Yes
Forced : Yes

Text #2
ID : 4
Format : UTF-8
Codec ID : S_TEXT/UTF8
Codec ID/Info : UTF-8 Plain Text
Duration : 44 min 10 s
Bit rate : 72 b/s
Count of elements : 661
Stream size : 23.5 KiB (0%)
Language : English
Default : No
Forced : No

Text #3
ID : 5
Format : UTF-8
Codec ID : S_TEXT/UTF8
Codec ID/Info : UTF-8 Plain Text
Duration : 44 min 12 s
Bit rate : 77 b/s
Count of elements : 709
Stream size : 25.2 KiB (0%)
Title : SDH
Language : English
Default : No
Forced : No

Text #4
ID : 6
Format : UTF-8
Codec ID : S_TEXT/UTF8
Codec ID/Info : UTF-8 Plain Text
Duration : 45 min 5 s
Bit rate : 99 b/s
Count of elements : 657
Stream size : 32.9 KiB (0%)
Language : Arabic
Default : No
Forced : No

Text #5
ID : 7
Format : UTF-8
Codec ID : S_TEXT/UTF8
Codec ID/Info : UTF-8 Plain Text
Duration : 45 min 5 s
Bit rate : 69 b/s
Count of elements : 649
Stream size : 22.9 KiB (0%)
Language : Danish
Default : No
Forced : No

Text #6
ID : 8
Format : UTF-8
Codec ID : S_TEXT/UTF8
Codec ID/Info : UTF-8 Plain Text
Duration : 45 min 3 s
Bit rate : 75 b/s
Count of elements : 600
Stream size : 25.0 KiB (0%)
Language : German
Default : No
Forced : No

Text #7
ID : 9
Format : UTF-8
Codec ID : S_TEXT/UTF8
Codec ID/Info : UTF-8 Plain Text
Duration : 45 min 5 s
Bit rate : 64 b/s
Count of elements : 651
Stream size : 21.4 KiB (0%)
Title : Latinoamérica
Language : Spanish
Default : No
Forced : No

Text #8
ID : 10
Format : UTF-8
Codec ID : S_TEXT/UTF8
Codec ID/Info : UTF-8 Plain Text
Duration : 45 min 5 s
Bit rate : 63 b/s
Count of elements : 648
Stream size : 21.1 KiB (0%)
Title : Espa├▒a
Language : Spanish
Default : No
Forced : No

Text #9
ID : 11
Format : UTF-8
Codec ID : S_TEXT/UTF8
Codec ID/Info : UTF-8 Plain Text
Duration : 45 min 5 s
Bit rate : 65 b/s
Count of elements : 646
Stream size : 21.5 KiB (0%)
Language : Finnish
Default : No
Forced : No

Text #10
ID : 12
Format : UTF-8
Codec ID : S_TEXT/UTF8
Codec ID/Info : UTF-8 Plain Text
Duration : 45 min 5 s
Bit rate : 71 b/s
Count of elements : 645
Stream size : 23.7 KiB (0%)
Language : French
Default : No
Forced : No

Text #11
ID : 13
Format : UTF-8
Codec ID : S_TEXT/UTF8
Codec ID/Info : UTF-8 Plain Text
Duration : 45 min 5 s
Bit rate : 93 b/s
Count of elements : 658
Stream size : 30.9 KiB (0%)
Language : Hebrew
Default : No
Forced : No

Text #12
ID : 14
Format : UTF-8
Codec ID : S_TEXT/UTF8
Codec ID/Info : UTF-8 Plain Text
Duration : 45 min 5 s
Bit rate : 179 b/s
Count of elements : 658
Stream size : 59.2 KiB (0%)
Language : Hindi
Default : No
Forced : No

Text #13
ID : 15
Format : UTF-8
Codec ID : S_TEXT/UTF8
Codec ID/Info : UTF-8 Plain Text
Duration : 45 min 5 s
Bit rate : 64 b/s
Count of elements : 639
Stream size : 21.3 KiB (0%)
Language : Italian
Default : No
Forced : No

Text #14
ID : 16
Format : UTF-8
Codec ID : S_TEXT/UTF8
Codec ID/Info : UTF-8 Plain Text
Duration : 44 min 11 s
Bit rate : 54 b/s
Count of elements : 640
Stream size : 17.5 KiB (0%)
Language : Japanese
Default : No
Forced : No

Text #15
ID : 17
Format : UTF-8
Codec ID : S_TEXT/UTF8
Codec ID/Info : UTF-8 Plain Text
Duration : 45 min 5 s
Bit rate : 210 b/s
Count of elements : 656
Stream size : 69.5 KiB (0%)
Language : Kannada
Default : No
Forced : No

Text #16
ID : 18
Format : UTF-8
Codec ID : S_TEXT/UTF8
Codec ID/Info : UTF-8 Plain Text
Duration : 45 min 5 s
Bit rate : 73 b/s
Count of elements : 657
Stream size : 24.1 KiB (0%)
Language : Korean
Default : No
Forced : No

Text #17
ID : 19
Format : UTF-8
Codec ID : S_TEXT/UTF8
Codec ID/Info : UTF-8 Plain Text
Duration : 45 min 5 s
Bit rate : 226 b/s
Count of elements : 657
Stream size : 74.8 KiB (0%)
Language : Malayalam
Default : No
Forced : No

Text #18
ID : 20
Format : UTF-8
Codec ID : S_TEXT/UTF8
Codec ID/Info : UTF-8 Plain Text
Duration : 45 min 5 s
Bit rate : 67 b/s
Count of elements : 542
Stream size : 22.4 KiB (0%)
Language : Norwegian Bokmal
Default : No
Forced : No

Text #19
ID : 21
Format : UTF-8
Codec ID : S_TEXT/UTF8
Codec ID/Info : UTF-8 Plain Text
Duration : 45 min 5 s
Bit rate : 60 b/s
Count of elements : 629
Stream size : 20.1 KiB (0%)
Language : Dutch
Default : No
Forced : No

Text #20
ID : 22
Format : UTF-8
Codec ID : S_TEXT/UTF8
Codec ID/Info : UTF-8 Plain Text
Duration : 45 min 5 s
Bit rate : 60 b/s
Count of elements : 650
Stream size : 20.0 KiB (0%)
Language : Polish
Default : No
Forced : No

Text #21
ID : 23
Format : UTF-8
Codec ID : S_TEXT/UTF8
Codec ID/Info : UTF-8 Plain Text
Duration : 45 min 5 s
Bit rate : 64 b/s
Count of elements : 648
Stream size : 21.3 KiB (0%)
Title : Brasil
Language : Portuguese
Default : No
Forced : No

Text #22
ID : 24
Format : UTF-8
Codec ID : S_TEXT/UTF8
Codec ID/Info : UTF-8 Plain Text
Duration : 45 min 5 s
Bit rate : 70 b/s
Count of elements : 650
Stream size : 23.4 KiB (0%)
Title : Portugal
Language : Portuguese
Default : No
Forced : No

Text #23
ID : 25
Format : UTF-8
Codec ID : S_TEXT/UTF8
Codec ID/Info : UTF-8 Plain Text
Duration : 45 min 5 s
Bit rate : 121 b/s
Count of elements : 657
Stream size : 40.2 KiB (0%)
Language : Russian
Default : No
Forced : No

Text #24
ID : 26
Format : UTF-8
Codec ID : S_TEXT/UTF8
Codec ID/Info : UTF-8 Plain Text
Duration : 45 min 5 s
Bit rate : 69 b/s
Count of elements : 652
Stream size : 23.0 KiB (0%)
Language : Swedish
Default : No
Forced : No

Text #25
ID : 27
Format : UTF-8
Codec ID : S_TEXT/UTF8
Codec ID/Info : UTF-8 Plain Text
Duration : 45 min 5 s
Bit rate : 72 b/s
Count of elements : 655
Stream size : 23.8 KiB (0%)
Language : Turkish
Default : No
Forced : No

Text #26
ID : 28
Format : UTF-8
Codec ID : S_TEXT/UTF8
Codec ID/Info : UTF-8 Plain Text
Duration : 45 min 5 s
Bit rate : 66 b/s
Count of elements : 656
Stream size : 22.0 KiB (0%)
Title : 简体
Language : Chinese
Default : No
Forced : No

Text #27
ID : 29
Format : UTF-8
Codec ID : S_TEXT/UTF8
Codec ID/Info : UTF-8 Plain Text
Duration : 45 min 5 s
Bit rate : 62 b/s
Count of elements : 657
Stream size : 20.7 KiB (0%)
Title : 繁體
Language : Chinese
Default : No
Forced : No

Menu
00:00:00.000 : Amazon Original
00:00:08.000 : Studio Logo
00:00:13.000 : Previously On
00:02:18.000 : Scene 4
00:02:38.000 : Scene 5
00:03:38.000 : Scene 6
00:04:26.000 : Scene 7
00:09:07.000 : Opening Credits
00:10:43.000 : Title Sequence
00:10:49.000 : Scene 10
00:12:01.000 : Scene 11
00:13:56.000 : Scene 12
00:16:52.000 : Scene 13
00:17:58.000 : Scene 14
00:18:01.000 : Scene 15
00:19:48.000 : Scene 16
00:23:33.000 : Scene 17
00:27:43.000 : Scene 18
00:29:37.000 : Scene 19
00:32:11.000 : Scene 20
00:32:45.000 : Scene 21
00:33:20.000 : Scene 22
00:35:28.000 : Scene 23
00:35:34.000 : Scene 24
00:37:02.000 : Scene 25
00:37:26.000 : Scene 26
00:37:29.000 : Scene 27
00:37:39.000 : Scene 28
00:37:55.000 : Scene 29
00:39:47.000 : Scene 30
00:43:21.000 : Scene 31
00:44:30.000 : End Credits

Direct Link Download

Leave a Reply

Your email address will not be published.