Snowfall 2017 S05E06 1080p AMZN WEB-DL DDP5 1 H 264-NTb

Los Angeles. 1983. A storm is coming and it’s name is crack. Set against the infancy of the crack cocaine epidemic and its ultimate radical impact on the culture as we know it, the story follows numerous characters on a violent collision course.
Download

Snowfall 2017 S05E06 1080p AMZN WEB-DL DDP5 1 H 264-NTb – 2.96 GB
mkv | 1920×1080 | 9539 Kbps | A_EAC3 at 640 Kbps
Links: RapidGatorMultiUP (Google Drive, Uptobox, 1fichier)
Pass: jw-n;z36pm

MediaInfo
General
Unique ID : 83280347213286544140859808144197509673 (0x3EA736216FCB31E4AE661B77E6916229)
Complete name : Snowfall.2017.S05E06.1080p.AMZN.WEB-DL.DDP5.1.H.264-NTb.mkv
Format : Matroska
Format version : Version 4
File size : 2.95 GiB
Duration : 44 min 20 s
Overall bit rate : 9 539 kb/s
Encoded date : UTC 2022-03-25 12:08:05
Writing application : mkvmerge v66.0.0 (‘Josie’) 64-bit
Writing library : libebml v1.4.2 + libmatroska v1.6.4

Video
ID : 1
Format : AVC
Format/Info : Advanced Video Codec
Format profile : [email protected]
Format settings : CABAC / 4 Ref Frames
Format settings, CABAC : Yes
Format settings, Reference frames : 4 frames
Codec ID : V_MPEG4/ISO/AVC
Duration : 44 min 20 s
Bit rate mode : Constant
Bit rate : 8 897 kb/s
Nominal bit rate : 10 000 kb/s
Width : 1 920 pixels
Height : 1 080 pixels
Display aspect ratio : 16:9
Frame rate mode : Constant
Frame rate : 23.976 (24000/1001) FPS
Color space : YUV
Chroma subsampling : 4:2:0
Bit depth : 8 bits
Scan type : Progressive
Bits/(Pixel*Frame) : 0.179
Stream size : 2.76 GiB (93%)
Default : Yes
Forced : No
Color range : Limited
Color primaries : BT.709
Transfer characteristics : BT.709
Matrix coefficients : BT.709

Audio
ID : 2
Format : E-AC-3
Format/Info : Enhanced AC-3
Commercial name : Dolby Digital Plus
Codec ID : A_EAC3
Duration : 44 min 20 s
Bit rate mode : Constant
Bit rate : 640 kb/s
Channel(s) : 6 channels
Channel layout : L R C LFE Ls Rs
Sampling rate : 48.0 kHz
Frame rate : 31.250 FPS (1536 SPF)
Compression mode : Lossy
Delay relative to video : 16 ms
Stream size : 203 MiB (7%)
Language : English
Service kind : Complete Main
Default : Yes
Forced : No

Text #1
ID : 3
Format : UTF-8
Codec ID : S_TEXT/UTF8
Codec ID/Info : UTF-8 Plain Text
Duration : 44 min 13 s
Bit rate : 60 b/s
Count of elements : 734
Stream size : 19.6 KiB (0%)
Language : English
Default : No
Forced : No

Text #2
ID : 4
Format : UTF-8
Codec ID : S_TEXT/UTF8
Codec ID/Info : UTF-8 Plain Text
Duration : 44 min 13 s
Bit rate : 68 b/s
Count of elements : 824
Stream size : 22.1 KiB (0%)
Title : SDH
Language : English
Default : No
Forced : No

Direct Link Download

Leave a Reply

Your email address will not be published.