Single Drunk Female S01E10 1080p HULU WEB-DL DDP5 1 H 264-NPMS

[align=center]Single Drunk Female S01E10 1080p HULU WEB-DL DDP5 1 H 264-NPMS
[/align] [B]Synopsis:[/B] A public flame-out at a New York media company forces 20-something alcoholic Samantha Fink to seize the only chance she has to sober up and avoid jail time: moving back home with her overbearing mother, Carol. Back in Greater Boston, Samantha restarts her life, working at the local grocery store while surrounded by all of the triggers that made her drink in the first place.

TV Name:………: Single Drunk Female
Release Name…..: Single Drunk Female S01E10.1080p HULU WEB-DL DDP5 1 H 264-NPMS
iMDB Link:…….: https://www.imdb.com/title/tt13790652/
Password
97}weidqd 1920×1080 weidqd{

[/su_box]
MediaInfo
General
Unique ID : 138193243804350232255907303262951439451 (0x67F70CF672645259DF48FE77AF61FC5B)
Complete name : Single.Drunk.Female.S01E10.1080p.HULU.WEB-DL.DDP5.1.H.264-NPMS.mkv
Format : Matroska
Format version : Version 4
File size : 791 MiB
Duration : 21 min 39 s
Overall bit rate : 5 103 kb/s
Encoded date : UTC 2022-03-25 15:49:26
Writing application : mkvmerge v66.0.0 (‘Josie’) 64-bit
Writing library : libebml v1.4.2 + libmatroska v1.6.4

Video
ID : 1
Format : AVC
Format/Info : Advanced Video Codec
Format profile : [email protected]
Format settings : CABAC / 4 Ref Frames
Format settings, CABAC : Yes
Format settings, Reference frames : 4 frames
Codec ID : V_MPEG4/ISO/AVC
Duration : 21 min 39 s
Bit rate : 4 846 kb/s
Width : 1 920 pixels
Height : 1 080 pixels
Display aspect ratio : 16:9
Frame rate mode : Constant
Frame rate : 23.976 (24000/1001) FPS
Color space : YUV
Chroma subsampling : 4:2:0
Bit depth : 8 bits
Scan type : Progressive
Bits/(Pixel*Frame) : 0.097
Stream size : 751 MiB (95%)
Default : Yes
Forced : No

Audio
ID : 2
Format : E-AC-3
Format/Info : Enhanced AC-3
Commercial name : Dolby Digital Plus
Codec ID : A_EAC3
Duration : 21 min 39 s
Bit rate mode : Constant
Bit rate : 256 kb/s
Channel(s) : 6 channels
Channel layout : L R C LFE Ls Rs
Sampling rate : 48.0 kHz
Frame rate : 31.250 FPS (1536 SPF)
Compression mode : Lossy
Stream size : 39.7 MiB (5%)
Language : English
Service kind : Complete Main
Default : Yes
Forced : No

Text
ID : 3
Format : UTF-8
Codec ID : S_TEXT/UTF8
Codec ID/Info : UTF-8 Plain Text
Duration : 21 min 35 s
Bit rate : 101 b/s
Count of elements : 504
Stream size : 16.0 KiB (0%)
Language : English
Default : No
Forced : No

Direct Link Download

Leave a Reply

Your email address will not be published.