Single Drunk Female S01E09 1080p HULU WEB-DL DDP5 1 H 264-NPMS

A public flame-out at a New York media company forces 20-something alcoholic Samantha Fink to seize the only chance she has to sober up and avoid jail time: moving back home with her overbearing mother, Carol. Back in Greater Boston, Samantha restarts her life, working at the local grocery store while surrounded by all of the triggers that made her drink in the first place.
Download

Single Drunk Female S01E09 1080p HULU WEB-DL DDP5 1 H 264-NPMS – 880.87 MB
mkv | 1920×1080 | 5897 Kbps | A_EAC3 at 256 Kbps
Links: RapidGatorMultiUP (Google Drive, Uptobox, 1fichier)
Pass: b=jla>9ag8

MediaInfo
General
Unique ID : 156299549444208230326694197957521148469 (0x759632C0F68E6675734E7668E2F18A35)
Complete name : Single.Drunk.Female.S01E09.1080p.HULU.WEB-DL.DDP5.1.H.264-NPMS.mkv
Format : Matroska
Format version : Version 4
File size : 880 MiB
Duration : 20 min 52 s
Overall bit rate : 5 898 kb/s
Encoded date : UTC 2022-03-25 15:49:08
Writing application : mkvmerge v66.0.0 (‘Josie’) 64-bit
Writing library : libebml v1.4.2 + libmatroska v1.6.4

Video
ID : 1
Format : AVC
Format/Info : Advanced Video Codec
Format profile : [email protected]
Format settings : CABAC / 4 Ref Frames
Format settings, CABAC : Yes
Format settings, Reference frames : 4 frames
Codec ID : V_MPEG4/ISO/AVC
Duration : 20 min 52 s
Bit rate : 5 640 kb/s
Width : 1 920 pixels
Height : 1 080 pixels
Display aspect ratio : 16:9
Frame rate mode : Constant
Frame rate : 23.976 (24000/1001) FPS
Color space : YUV
Chroma subsampling : 4:2:0
Bit depth : 8 bits
Scan type : Progressive
Bits/(Pixel*Frame) : 0.113
Stream size : 842 MiB (96%)
Default : Yes
Forced : No

Audio
ID : 2
Format : E-AC-3
Format/Info : Enhanced AC-3
Commercial name : Dolby Digital Plus
Codec ID : A_EAC3
Duration : 20 min 52 s
Bit rate mode : Constant
Bit rate : 256 kb/s
Channel(s) : 6 channels
Channel layout : L R C LFE Ls Rs
Sampling rate : 48.0 kHz
Frame rate : 31.250 FPS (1536 SPF)
Compression mode : Lossy
Stream size : 38.2 MiB (4%)
Language : English
Service kind : Complete Main
Default : Yes
Forced : No

Text
ID : 3
Format : UTF-8
Codec ID : S_TEXT/UTF8
Codec ID/Info : UTF-8 Plain Text
Duration : 20 min 50 s
Bit rate : 104 b/s
Count of elements : 506
Stream size : 15.9 KiB (0%)
Language : English
Default : No
Forced : No

Direct Link Download

Leave a Reply

Your email address will not be published.