Servant S03E10 2160p ATVP WEB-DL DDPA5 1 HDR HEVC-CasStudio

A Philadelphia couple are in mourning after an unspeakable tragedy creates a rift in their marriage and opens the door for a mysterious force to enter their home.
Download

Servant S03E10 2160p ATVP WEB-DL DDPA5 1 HDR HEVC-CasStudio – 4.74 GB
mkv | 3840×1920 | 25453 Kbps | A_EAC3 at 768 Kbps
Links: RapidGatorMultiUP (Google Drive, Uptobox, 1fichier)
Pass: de5#[email protected]

MediaInfo
General
Unique ID : 205509032096991802731184007866509506533 (0x9A9B999175418142F36355C3A9F937E5)
Complete name : Servant.S03E10.Mama.2160p.ATVP.WEB-DL.DDP5.1.HDR.HEVC-CasStudio.mkv
Format : Matroska
Format version : Version 4
File size : 4.74 GiB
Duration : 26 min 38 s
Overall bit rate : 25.5 Mb/s
Writing application : mkvmerge v65.0.0 (‘Too Much’) 64-bit
Writing library : libebml v1.4.2 + libmatroska v1.6.4

Video
ID : 1
Format : HEVC
Format/Info : High Efficiency Video Coding
Format profile : Main [email protected]@High
HDR format : SMPTE ST 2086, HDR10 compatible
Codec ID : V_MPEGH/ISO/HEVC
Duration : 26 min 38 s
Bit rate : 24.7 Mb/s
Width : 3 840 pixels
Height : 1 920 pixels
Display aspect ratio : 2.000
Frame rate mode : Constant
Frame rate : 23.976 (23976/1000) FPS
Color space : YUV
Chroma subsampling : 4:2:0 (Type 2)
Bit depth : 10 bits
Bits/(Pixel*Frame) : 0.140
Stream size : 4.59 GiB (97%)
Language : English
Default : Yes
Forced : No
Color range : Limited
Color primaries : BT.2020
Transfer characteristics : PQ
Matrix coefficients : BT.2020 non-constant
Mastering display color primaries : Display P3
Mastering display luminance : min: 0.0050 cd/m2, max: 1000 cd/m2
Maximum Content Light Level : 123 cd/m2
Maximum Frame-Average Light Level : 18 cd/m2

Audio
ID : 2
Format : E-AC-3 JOC
Format/Info : Enhanced AC-3 with Joint Object Coding
Commercial name : Dolby Digital Plus with Dolby Atmos
Codec ID : A_EAC3
Duration : 26 min 38 s
Bit rate mode : Constant
Bit rate : 768 kb/s
Channel(s) : 6 channels
Channel layout : L R C LFE Ls Rs
Sampling rate : 48.0 kHz
Frame rate : 31.250 FPS (1536 SPF)
Compression mode : Lossy
Stream size : 146 MiB (3%)
Language : English
Service kind : Complete Main
Default : Yes
Forced : No
Complexity index : 16
Number of dynamic objects : 15
Bed channel count : 1 channel
Bed channel configuration : LFE

Text #1
ID : 3
Format : UTF-8
Codec ID : S_TEXT/UTF8
Codec ID/Info : UTF-8 Plain Text
Duration : 25 min 48 s
Bit rate : 45 b/s
Count of elements : 273
Stream size : 8.66 KiB (0%)
Language : English
Default : No
Forced : No

Text #2
ID : 4
Format : UTF-8
Codec ID : S_TEXT/UTF8
Codec ID/Info : UTF-8 Plain Text
Duration : 25 min 51 s
Bit rate : 53 b/s
Count of elements : 314
Stream size : 10.1 KiB (0%)
Title : English (SDH)
Language : English
Default : No
Forced : No

Text #3
ID : 5
Format : UTF-8
Codec ID : S_TEXT/UTF8
Codec ID/Info : UTF-8 Plain Text
Duration : 26 min 31 s
Bit rate : 62 b/s
Count of elements : 281
Stream size : 12.1 KiB (0%)
Language : Arabic
Default : No
Forced : No

Text #4
ID : 6
Format : UTF-8
Codec ID : S_TEXT/UTF8
Codec ID/Info : UTF-8 Plain Text
Duration : 26 min 31 s
Bit rate : 69 b/s
Count of elements : 273
Stream size : 13.4 KiB (0%)
Language : Bulgarian
Default : No
Forced : No

Text #5
ID : 7
Format : UTF-8
Codec ID : S_TEXT/UTF8
Codec ID/Info : UTF-8 Plain Text
Duration : 26 min 31 s
Bit rate : 42 b/s
Count of elements : 282
Stream size : 8.21 KiB (0%)
Language : Chinese
Default : No
Forced : No

Text #6
ID : 8
Format : UTF-8
Codec ID : S_TEXT/UTF8
Codec ID/Info : UTF-8 Plain Text
Duration : 26 min 31 s
Bit rate : 40 b/s
Count of elements : 281
Stream size : 7.95 KiB (0%)
Language : Chinese
Default : No
Forced : No

Text #7
ID : 9
Format : UTF-8
Codec ID : S_TEXT/UTF8
Codec ID/Info : UTF-8 Plain Text
Duration : 26 min 31 s
Bit rate : 41 b/s
Count of elements : 282
Stream size : 8.11 KiB (0%)
Language : Chinese
Default : No
Forced : No

Text #8
ID : 10
Format : UTF-8
Codec ID : S_TEXT/UTF8
Codec ID/Info : UTF-8 Plain Text
Duration : 26 min 31 s
Bit rate : 39 b/s
Count of elements : 272
Stream size : 7.68 KiB (0%)
Language : Czech
Default : No
Forced : No

Text #9
ID : 11
Format : UTF-8
Codec ID : S_TEXT/UTF8
Codec ID/Info : UTF-8 Plain Text
Duration : 26 min 31 s
Bit rate : 44 b/s
Count of elements : 247
Stream size : 8.63 KiB (0%)
Language : Danish
Default : No
Forced : No

Text #10
ID : 12
Format : UTF-8
Codec ID : S_TEXT/UTF8
Codec ID/Info : UTF-8 Plain Text
Duration : 26 min 31 s
Bit rate : 40 b/s
Count of elements : 250
Stream size : 7.95 KiB (0%)
Language : Dutch
Default : No
Forced : No

Text #11
ID : 13
Format : UTF-8
Codec ID : S_TEXT/UTF8
Codec ID/Info : UTF-8 Plain Text
Duration : 26 min 31 s
Bit rate : 41 b/s
Count of elements : 261
Stream size : 8.09 KiB (0%)
Language : Estonian
Default : No
Forced : No

Text #12
ID : 14
Format : UTF-8
Codec ID : S_TEXT/UTF8
Codec ID/Info : UTF-8 Plain Text
Duration : 26 min 31 s
Bit rate : 40 b/s
Count of elements : 269
Stream size : 7.95 KiB (0%)
Language : Finnish
Default : No
Forced : No

Text #13
ID : 15
Format : UTF-8
Codec ID : S_TEXT/UTF8
Codec ID/Info : UTF-8 Plain Text
Duration : 26 min 31 s
Bit rate : 41 b/s
Count of elements : 299
Stream size : 8.15 KiB (0%)
Title : French (Canada)
Language : French
Default : No
Forced : No

Text #14
ID : 16
Format : UTF-8
Codec ID : S_TEXT/UTF8
Codec ID/Info : UTF-8 Plain Text
Duration : 26 min 31 s
Bit rate : 41 b/s
Count of elements : 298
Stream size : 8.13 KiB (0%)
Title : French (France)
Language : French
Default : No
Forced : No

Text #15
ID : 17
Format : UTF-8
Codec ID : S_TEXT/UTF8
Codec ID/Info : UTF-8 Plain Text
Duration : 26 min 31 s
Bit rate : 48 b/s
Count of elements : 278
Stream size : 9.42 KiB (0%)
Language : German
Default : No
Forced : No

Text #16
ID : 18
Format : UTF-8
Codec ID : S_TEXT/UTF8
Codec ID/Info : UTF-8 Plain Text
Duration : 26 min 31 s
Bit rate : 77 b/s
Count of elements : 256
Stream size : 15.0 KiB (0%)
Language : Greek
Default : No
Forced : No

Text #17
ID : 19
Format : UTF-8
Codec ID : S_TEXT/UTF8
Codec ID/Info : UTF-8 Plain Text
Duration : 26 min 31 s
Bit rate : 61 b/s
Count of elements : 280
Stream size : 12.0 KiB (0%)
Language : Hebrew
Default : No
Forced : No

Text #18
ID : 20
Format : UTF-8
Codec ID : S_TEXT/UTF8
Codec ID/Info : UTF-8 Plain Text
Duration : 26 min 31 s
Bit rate : 122 b/s
Count of elements : 282
Stream size : 23.8 KiB (0%)
Language : Hindi
Default : No
Forced : No

Text #19
ID : 21
Format : UTF-8
Codec ID : S_TEXT/UTF8
Codec ID/Info : UTF-8 Plain Text
Duration : 26 min 31 s
Bit rate : 43 b/s
Count of elements : 279
Stream size : 8.37 KiB (0%)
Language : Hungarian
Default : No
Forced : No

Text #20
ID : 22
Format : UTF-8
Codec ID : S_TEXT/UTF8
Codec ID/Info : UTF-8 Plain Text
Duration : 26 min 31 s
Bit rate : 44 b/s
Count of elements : 279
Stream size : 8.67 KiB (0%)
Language : Indonesian
Default : No
Forced : No

Text #21
ID : 23
Format : UTF-8
Codec ID : S_TEXT/UTF8
Codec ID/Info : UTF-8 Plain Text
Duration : 26 min 31 s
Bit rate : 48 b/s
Count of elements : 283
Stream size : 9.33 KiB (0%)
Language : Italian
Default : No
Forced : No

Text #22
ID : 24
Format : UTF-8
Codec ID : S_TEXT/UTF8
Codec ID/Info : UTF-8 Plain Text
Duration : 26 min 36 s
Bit rate : 37 b/s
Count of elements : 304
Stream size : 7.27 KiB (0%)
Language : Japanese
Default : No
Forced : No

Text #23
ID : 25
Format : UTF-8
Codec ID : S_TEXT/UTF8
Codec ID/Info : UTF-8 Plain Text
Duration : 26 min 31 s
Bit rate : 49 b/s
Count of elements : 282
Stream size : 9.54 KiB (0%)
Language : Korean
Default : No
Forced : No

Text #24
ID : 26
Format : UTF-8
Codec ID : S_TEXT/UTF8
Codec ID/Info : UTF-8 Plain Text
Duration : 26 min 31 s
Bit rate : 45 b/s
Count of elements : 278
Stream size : 8.84 KiB (0%)
Language : Latvian
Default : No
Forced : No

Text #25
ID : 27
Format : UTF-8
Codec ID : S_TEXT/UTF8
Codec ID/Info : UTF-8 Plain Text
Duration : 26 min 31 s
Bit rate : 44 b/s
Count of elements : 279
Stream size : 8.61 KiB (0%)
Language : Lithuanian
Default : No
Forced : No

Text #26
ID : 28
Format : UTF-8
Codec ID : S_TEXT/UTF8
Codec ID/Info : UTF-8 Plain Text
Duration : 26 min 31 s
Bit rate : 46 b/s
Count of elements : 278
Stream size : 9.07 KiB (0%)
Language : Malay
Default : No
Forced : No

Text #27
ID : 29
Format : UTF-8
Codec ID : S_TEXT/UTF8
Codec ID/Info : UTF-8 Plain Text
Duration : 26 min 31 s
Bit rate : 43 b/s
Count of elements : 232
Stream size : 8.52 KiB (0%)
Language : Norwegian
Default : No
Forced : No

Text #28
ID : 30
Format : UTF-8
Codec ID : S_TEXT/UTF8
Codec ID/Info : UTF-8 Plain Text
Duration : 26 min 31 s
Bit rate : 41 b/s
Count of elements : 270
Stream size : 8.08 KiB (0%)
Language : Polish
Default : No
Forced : No

Text #29
ID : 31
Format : UTF-8
Codec ID : S_TEXT/UTF8
Codec ID/Info : UTF-8 Plain Text
Duration : 26 min 31 s
Bit rate : 44 b/s
Count of elements : 278
Stream size : 8.62 KiB (0%)
Language : Portuguese
Default : No
Forced : No

Text #30
ID : 32
Format : UTF-8
Codec ID : S_TEXT/UTF8
Codec ID/Info : UTF-8 Plain Text
Duration : 26 min 31 s
Bit rate : 39 b/s
Count of elements : 279
Stream size : 7.73 KiB (0%)
Title : Portuguese (Brazil)
Language : Portuguese
Default : No
Forced : No

Text #31
ID : 33
Format : UTF-8
Codec ID : S_TEXT/UTF8
Codec ID/Info : UTF-8 Plain Text
Duration : 26 min 31 s
Bit rate : 67 b/s
Count of elements : 279
Stream size : 13.1 KiB (0%)
Language : Russian
Default : No
Forced : No

Text #32
ID : 34
Format : UTF-8
Codec ID : S_TEXT/UTF8
Codec ID/Info : UTF-8 Plain Text
Duration : 26 min 31 s
Bit rate : 41 b/s
Count of elements : 276
Stream size : 8.07 KiB (0%)
Language : Slovak
Default : No
Forced : No

Text #33
ID : 35
Format : UTF-8
Codec ID : S_TEXT/UTF8
Codec ID/Info : UTF-8 Plain Text
Duration : 26 min 31 s
Bit rate : 37 b/s
Count of elements : 219
Stream size : 7.23 KiB (0%)
Language : Slovenian
Default : No
Forced : No

Text #34
ID : 36
Format : UTF-8
Codec ID : S_TEXT/UTF8
Codec ID/Info : UTF-8 Plain Text
Duration : 26 min 31 s
Bit rate : 44 b/s
Count of elements : 279
Stream size : 8.67 KiB (0%)
Title : Spanish (Latin America)
Language : Spanish
Default : No
Forced : No

Text #35
ID : 37
Format : UTF-8
Codec ID : S_TEXT/UTF8
Codec ID/Info : UTF-8 Plain Text
Duration : 26 min 31 s
Bit rate : 45 b/s
Count of elements : 275
Stream size : 8.91 KiB (0%)
Title : Spanish (Spain)
Language : Spanish
Default : No
Forced : No

Text #36
ID : 38
Format : UTF-8
Codec ID : S_TEXT/UTF8
Codec ID/Info : UTF-8 Plain Text
Duration : 26 min 31 s
Bit rate : 43 b/s
Count of elements : 276
Stream size : 8.48 KiB (0%)
Language : Swedish
Default : No
Forced : No

Text #37
ID : 39
Format : UTF-8
Codec ID : S_TEXT/UTF8
Codec ID/Info : UTF-8 Plain Text
Duration : 26 min 31 s
Bit rate : 148 b/s
Count of elements : 281
Stream size : 28.8 KiB (0%)
Language : Tamil
Default : No
Forced : No

Text #38
ID : 40
Format : UTF-8
Codec ID : S_TEXT/UTF8
Codec ID/Info : UTF-8 Plain Text
Duration : 26 min 31 s
Bit rate : 142 b/s
Count of elements : 281
Stream size : 27.6 KiB (0%)
Language : Telugu
Default : No
Forced : No

Text #39
ID : 41
Format : UTF-8
Codec ID : S_TEXT/UTF8
Codec ID/Info : UTF-8 Plain Text
Duration : 26 min 31 s
Bit rate : 112 b/s
Count of elements : 281
Stream size : 21.9 KiB (0%)
Language : Thai
Default : No
Forced : No

Text #40
ID : 42
Format : UTF-8
Codec ID : S_TEXT/UTF8
Codec ID/Info : UTF-8 Plain Text
Duration : 26 min 31 s
Bit rate : 45 b/s
Count of elements : 279
Stream size : 8.80 KiB (0%)
Language : Turkish
Default : No
Forced : No

Text #41
ID : 43
Format : UTF-8
Codec ID : S_TEXT/UTF8
Codec ID/Info : UTF-8 Plain Text
Duration : 26 min 31 s
Bit rate : 65 b/s
Count of elements : 281
Stream size : 12.6 KiB (0%)
Language : Ukrainian
Default : No
Forced : No

Text #42
ID : 44
Format : UTF-8
Codec ID : S_TEXT/UTF8
Codec ID/Info : UTF-8 Plain Text
Duration : 26 min 31 s
Bit rate : 57 b/s
Count of elements : 281
Stream size : 11.2 KiB (0%)
Language : Vietnamese
Default : No
Forced : No

Menu
00:00:00.000 : :Chapter 01
00:00:32.073 : :Chapter 02

Direct Link Download

Leave a Reply

Your email address will not be published.