Servant S03E05 1080p ATVP WEB-DL DDPA5 1 H 264-FLUX

A Philadelphia couple are in mourning after an unspeakable tragedy creates a rift in their marriage and opens the door for a mysterious force to enter their home.
Download

Servant S03E05 1080p ATVP WEB-DL DDPA5 1 H 264-FLUX – 1.94 GB
mkv | 1920×960 | 10591 Kbps | A_EAC3 at 768 Kbps
Links: RapidGatorMultiUP (Google Drive, Uptobox, 1fichier)
Pass: 7xfn9([email protected]

MediaInfo
General
Unique ID : 339673315865920133557532860157436833167 (0xFF8AB376EF41DEBF6D2060AA8CAF2D8F)
Complete name : Servant.S03E05.1080p.ATVP.WEB-DL.DDP5.1.Atmos.H.264-FLUX.mkv
Format : Matroska
Format version : Version 4
File size : 1.94 GiB
Duration : 26 min 13 s
Overall bit rate : 10.6 Mb/s
Movie name : Servant – S03E05 – Tiger
Encoded date : UTC 2022-02-18 02:03:02
Writing application : mkvmerge v64.0.0 (‘Willows’) 64-bit
Writing library : libebml v1.4.2 + libmatroska v1.6.4
IMDB : tt8068860
TMDB : tv/88055

Video
ID : 1
Format : AVC
Format/Info : Advanced Video Codec
Format profile : [email protected]
Format settings : CABAC / 4 Ref Frames
Format settings, CABAC : Yes
Format settings, Reference frames : 4 frames
Codec ID : V_MPEG4/ISO/AVC
Duration : 26 min 13 s
Bit rate : 9 816 kb/s
Width : 1 920 pixels
Height : 960 pixels
Display aspect ratio : 2.000
Frame rate mode : Constant
Frame rate : 23.976 (24000/1001) FPS
Color space : YUV
Chroma subsampling : 4:2:0
Bit depth : 8 bits
Scan type : Progressive
Bits/(Pixel*Frame) : 0.222
Stream size : 1.80 GiB (93%)
Default : Yes
Forced : No
Color range : Limited
Color primaries : BT.709
Transfer characteristics : BT.709
Matrix coefficients : BT.709

Audio
ID : 2
Format : E-AC-3 JOC
Format/Info : Enhanced AC-3 with Joint Object Coding
Commercial name : Dolby Digital Plus with Dolby Atmos
Codec ID : A_EAC3
Duration : 26 min 13 s
Bit rate mode : Constant
Bit rate : 768 kb/s
Channel(s) : 6 channels
Channel layout : L R C LFE Ls Rs
Sampling rate : 48.0 kHz
Frame rate : 31.250 FPS (1536 SPF)
Compression mode : Lossy
Stream size : 144 MiB (7%)
Language : English
Service kind : Complete Main
Default : Yes
Forced : No
Complexity index : 16
Number of dynamic objects : 15
Bed channel count : 1 channel
Bed channel configuration : LFE

Text #1
ID : 3
Format : UTF-8
Codec ID : S_TEXT/UTF8
Codec ID/Info : UTF-8 Plain Text
Duration : 22 min 35 s
Bit rate : 70 b/s
Count of elements : 349
Stream size : 11.7 KiB (0%)
Language : English
Default : No
Forced : No

Text #2
ID : 4
Format : UTF-8
Codec ID : S_TEXT/UTF8
Codec ID/Info : UTF-8 Plain Text
Duration : 24 min 42 s
Bit rate : 74 b/s
Count of elements : 408
Stream size : 13.5 KiB (0%)
Title : SDH
Language : English
Default : No
Forced : No

Text #3
ID : 5
Format : UTF-8
Codec ID : S_TEXT/UTF8
Codec ID/Info : UTF-8 Plain Text
Duration : 24 min 26 s
Bit rate : 91 b/s
Count of elements : 355
Stream size : 16.3 KiB (0%)
Language : Arabic
Default : No
Forced : No

Text #4
ID : 6
Format : UTF-8
Codec ID : S_TEXT/UTF8
Codec ID/Info : UTF-8 Plain Text
Duration : 24 min 26 s
Bit rate : 94 b/s
Count of elements : 328
Stream size : 16.9 KiB (0%)
Language : Bulgarian
Default : No
Forced : No

Text #5
ID : 7
Format : UTF-8
Codec ID : S_TEXT/UTF8
Codec ID/Info : UTF-8 Plain Text
Duration : 24 min 26 s
Bit rate : 56 b/s
Count of elements : 355
Stream size : 10.1 KiB (0%)
Title : Simplified
Language : Chinese
Default : No
Forced : No

Text #6
ID : 8
Format : UTF-8
Codec ID : S_TEXT/UTF8
Codec ID/Info : UTF-8 Plain Text
Duration : 25 min 27 s
Bit rate : 56 b/s
Count of elements : 356
Stream size : 10.6 KiB (0%)
Title : Traditional
Language : Chinese
Default : No
Forced : No

Text #7
ID : 9
Format : UTF-8
Codec ID : S_TEXT/UTF8
Codec ID/Info : UTF-8 Plain Text
Duration : 24 min 26 s
Bit rate : 54 b/s
Count of elements : 339
Stream size : 9.80 KiB (0%)
Language : Czech
Default : No
Forced : No

Text #8
ID : 10
Format : UTF-8
Codec ID : S_TEXT/UTF8
Codec ID/Info : UTF-8 Plain Text
Duration : 24 min 26 s
Bit rate : 53 b/s
Count of elements : 344
Stream size : 9.63 KiB (0%)
Language : Danish
Default : No
Forced : No

Text #9
ID : 11
Format : UTF-8
Codec ID : S_TEXT/UTF8
Codec ID/Info : UTF-8 Plain Text
Duration : 24 min 25 s
Bit rate : 65 b/s
Count of elements : 303
Stream size : 11.8 KiB (0%)
Language : German
Default : No
Forced : No

Text #10
ID : 12
Format : UTF-8
Codec ID : S_TEXT/UTF8
Codec ID/Info : UTF-8 Plain Text
Duration : 24 min 26 s
Bit rate : 104 b/s
Count of elements : 332
Stream size : 18.6 KiB (0%)
Language : Greek
Default : No
Forced : No

Text #11
ID : 13
Format : UTF-8
Codec ID : S_TEXT/UTF8
Codec ID/Info : UTF-8 Plain Text
Duration : 24 min 26 s
Bit rate : 61 b/s
Count of elements : 355
Stream size : 11.1 KiB (0%)
Title : Latin American
Language : Spanish
Default : No
Forced : No

Text #12
ID : 14
Format : UTF-8
Codec ID : S_TEXT/UTF8
Codec ID/Info : UTF-8 Plain Text
Duration : 24 min 26 s
Bit rate : 64 b/s
Count of elements : 356
Stream size : 11.5 KiB (0%)
Language : Spanish
Default : No
Forced : No

Text #13
ID : 15
Format : UTF-8
Codec ID : S_TEXT/UTF8
Codec ID/Info : UTF-8 Plain Text
Duration : 24 min 26 s
Bit rate : 56 b/s
Count of elements : 304
Stream size : 10.2 KiB (0%)
Language : Estonian
Default : No
Forced : No

Text #14
ID : 16
Format : UTF-8
Codec ID : S_TEXT/UTF8
Codec ID/Info : UTF-8 Plain Text
Duration : 24 min 26 s
Bit rate : 58 b/s
Count of elements : 322
Stream size : 10.5 KiB (0%)
Language : Finnish
Default : No
Forced : No

Text #15
ID : 17
Format : UTF-8
Codec ID : S_TEXT/UTF8
Codec ID/Info : UTF-8 Plain Text
Duration : 25 min 11 s
Bit rate : 52 b/s
Count of elements : 329
Stream size : 9.73 KiB (0%)
Title : Canadian
Language : French
Default : No
Forced : No

Text #16
ID : 18
Format : UTF-8
Codec ID : S_TEXT/UTF8
Codec ID/Info : UTF-8 Plain Text
Duration : 24 min 10 s
Bit rate : 54 b/s
Count of elements : 328
Stream size : 9.71 KiB (0%)
Language : French
Default : No
Forced : No

Text #17
ID : 19
Format : UTF-8
Codec ID : S_TEXT/UTF8
Codec ID/Info : UTF-8 Plain Text
Duration : 24 min 26 s
Bit rate : 83 b/s
Count of elements : 355
Stream size : 15.0 KiB (0%)
Language : Hebrew
Default : No
Forced : No

Text #18
ID : 20
Format : UTF-8
Codec ID : S_TEXT/UTF8
Codec ID/Info : UTF-8 Plain Text
Duration : 25 min 27 s
Bit rate : 171 b/s
Count of elements : 356
Stream size : 31.9 KiB (0%)
Language : Hindi
Default : No
Forced : No

Text #19
ID : 21
Format : UTF-8
Codec ID : S_TEXT/UTF8
Codec ID/Info : UTF-8 Plain Text
Duration : 24 min 26 s
Bit rate : 56 b/s
Count of elements : 354
Stream size : 10.2 KiB (0%)
Language : Hungarian
Default : No
Forced : No

Text #20
ID : 22
Format : UTF-8
Codec ID : S_TEXT/UTF8
Codec ID/Info : UTF-8 Plain Text
Duration : 24 min 26 s
Bit rate : 62 b/s
Count of elements : 353
Stream size : 11.2 KiB (0%)
Language : Indonesian
Default : No
Forced : No

Text #21
ID : 23
Format : UTF-8
Codec ID : S_TEXT/UTF8
Codec ID/Info : UTF-8 Plain Text
Duration : 24 min 23 s
Bit rate : 65 b/s
Count of elements : 350
Stream size : 11.7 KiB (0%)
Language : Italian
Default : No
Forced : No

Text #22
ID : 24
Format : UTF-8
Codec ID : S_TEXT/UTF8
Codec ID/Info : UTF-8 Plain Text
Duration : 25 min 32 s
Bit rate : 48 b/s
Count of elements : 378
Stream size : 9.00 KiB (0%)
Language : Japanese
Default : No
Forced : No

Text #23
ID : 25
Format : UTF-8
Codec ID : S_TEXT/UTF8
Codec ID/Info : UTF-8 Plain Text
Duration : 25 min 27 s
Bit rate : 66 b/s
Count of elements : 356
Stream size : 12.4 KiB (0%)
Language : Korean
Default : No
Forced : No

Text #24
ID : 26
Format : UTF-8
Codec ID : S_TEXT/UTF8
Codec ID/Info : UTF-8 Plain Text
Duration : 24 min 26 s
Bit rate : 62 b/s
Count of elements : 354
Stream size : 11.1 KiB (0%)
Language : Lithuanian
Default : No
Forced : No

Text #25
ID : 27
Format : UTF-8
Codec ID : S_TEXT/UTF8
Codec ID/Info : UTF-8 Plain Text
Duration : 24 min 26 s
Bit rate : 65 b/s
Count of elements : 350
Stream size : 11.6 KiB (0%)
Language : Latvian
Default : No
Forced : No

Text #26
ID : 28
Format : UTF-8
Codec ID : S_TEXT/UTF8
Codec ID/Info : UTF-8 Plain Text
Duration : 24 min 26 s
Bit rate : 62 b/s
Count of elements : 354
Stream size : 11.2 KiB (0%)
Language : Malay
Default : No
Forced : No

Text #27
ID : 29
Format : UTF-8
Codec ID : S_TEXT/UTF8
Codec ID/Info : UTF-8 Plain Text
Duration : 24 min 26 s
Bit rate : 55 b/s
Count of elements : 308
Stream size : 9.92 KiB (0%)
Language : Dutch
Default : No
Forced : No

Text #28
ID : 30
Format : UTF-8
Codec ID : S_TEXT/UTF8
Codec ID/Info : UTF-8 Plain Text
Duration : 24 min 26 s
Bit rate : 59 b/s
Count of elements : 283
Stream size : 10.6 KiB (0%)
Language : Norwegian
Default : No
Forced : No

Text #29
ID : 31
Format : UTF-8
Codec ID : S_TEXT/UTF8
Codec ID/Info : UTF-8 Plain Text
Duration : 24 min 26 s
Bit rate : 57 b/s
Count of elements : 335
Stream size : 10.2 KiB (0%)
Language : Polish
Default : No
Forced : No

Text #30
ID : 32
Format : UTF-8
Codec ID : S_TEXT/UTF8
Codec ID/Info : UTF-8 Plain Text
Duration : 24 min 26 s
Bit rate : 54 b/s
Count of elements : 353
Stream size : 9.74 KiB (0%)
Title : Brazilian
Language : Portuguese
Default : No
Forced : No

Text #31
ID : 33
Format : UTF-8
Codec ID : S_TEXT/UTF8
Codec ID/Info : UTF-8 Plain Text
Duration : 24 min 26 s
Bit rate : 61 b/s
Count of elements : 350
Stream size : 11.0 KiB (0%)
Language : Portuguese
Default : No
Forced : No

Text #32
ID : 34
Format : UTF-8
Codec ID : S_TEXT/UTF8
Codec ID/Info : UTF-8 Plain Text
Duration : 25 min 27 s
Bit rate : 92 b/s
Count of elements : 357
Stream size : 17.2 KiB (0%)
Language : Russian
Default : No
Forced : No

Text #33
ID : 35
Format : UTF-8
Codec ID : S_TEXT/UTF8
Codec ID/Info : UTF-8 Plain Text
Duration : 24 min 26 s
Bit rate : 58 b/s
Count of elements : 352
Stream size : 10.5 KiB (0%)
Language : Slovak
Default : No
Forced : No

Text #34
ID : 36
Format : UTF-8
Codec ID : S_TEXT/UTF8
Codec ID/Info : UTF-8 Plain Text
Duration : 24 min 26 s
Bit rate : 49 b/s
Count of elements : 267
Stream size : 8.86 KiB (0%)
Language : Slovenian
Default : No
Forced : No

Text #35
ID : 37
Format : UTF-8
Codec ID : S_TEXT/UTF8
Codec ID/Info : UTF-8 Plain Text
Duration : 24 min 26 s
Bit rate : 62 b/s
Count of elements : 353
Stream size : 11.2 KiB (0%)
Language : Swedish
Default : No
Forced : No

Text #36
ID : 38
Format : UTF-8
Codec ID : S_TEXT/UTF8
Codec ID/Info : UTF-8 Plain Text
Duration : 24 min 26 s
Bit rate : 202 b/s
Count of elements : 355
Stream size : 36.3 KiB (0%)
Language : Tamil
Default : No
Forced : No

Text #37
ID : 39
Format : UTF-8
Codec ID : S_TEXT/UTF8
Codec ID/Info : UTF-8 Plain Text
Duration : 24 min 26 s
Bit rate : 194 b/s
Count of elements : 355
Stream size : 34.9 KiB (0%)
Language : Telugu
Default : No
Forced : No

Text #38
ID : 40
Format : UTF-8
Codec ID : S_TEXT/UTF8
Codec ID/Info : UTF-8 Plain Text
Duration : 24 min 26 s
Bit rate : 156 b/s
Count of elements : 355
Stream size : 27.9 KiB (0%)
Language : Thai
Default : No
Forced : No

Text #39
ID : 41
Format : UTF-8
Codec ID : S_TEXT/UTF8
Codec ID/Info : UTF-8 Plain Text
Duration : 24 min 26 s
Bit rate : 65 b/s
Count of elements : 353
Stream size : 11.7 KiB (0%)
Language : Turkish
Default : No
Forced : No

Text #40
ID : 42
Format : UTF-8
Codec ID : S_TEXT/UTF8
Codec ID/Info : UTF-8 Plain Text
Duration : 25 min 27 s
Bit rate : 86 b/s
Count of elements : 356
Stream size : 16.1 KiB (0%)
Language : Ukrainian
Default : No
Forced : No

Text #41
ID : 43
Format : UTF-8
Codec ID : S_TEXT/UTF8
Codec ID/Info : UTF-8 Plain Text
Duration : 25 min 27 s
Bit rate : 75 b/s
Count of elements : 354
Stream size : 14.0 KiB (0%)
Language : Vietnamese
Default : No
Forced : No

Text #42
ID : 44
Format : UTF-8
Codec ID : S_TEXT/UTF8
Codec ID/Info : UTF-8 Plain Text
Duration : 25 min 27 s
Bit rate : 58 b/s
Count of elements : 356
Stream size : 11.0 KiB (0%)
Title : Cantonese
Language : Chinese
Default : No
Forced : No

Direct Link Download

Leave a Reply

Your email address will not be published.