Patriot 2017 S02 1080p AMZN WEBRip DDP5 1 x264-NTG

To prevent Iran from going nuclear, intelligence officer John Tavner must forgo all safety nets and assume a perilous “non-official cover” — that of a mid-level employee at a Midwestern industrial piping firm.
Download

Patriot 2017 S02 1080p AMZN WEBRip DDP5 1 x264-NTG – 11.19 GB
part1.rar | N/AxN/A | N/A | N/A at N/A
Links: RapidGatorMultiUP (Google Drive, Uptobox, 1fichier)
Pass: jf10v}nyc.

Episode List
Patriot.2017.S02E01.1080p.AMZN.WEB-DL.DDP5.1.H.264-NTG.mkv ~ 1.633 GiB
Patriot.2017.S02E02.1080p.AMZN.WEB-DL.DDP5.1.H.264-NTG.mkv ~ 1.413 GiB
Patriot.2017.S02E03.1080p.AMZN.WEB-DL.DDP5.1.H.264-NTG.mkv ~ 1.322 GiB
Patriot.2017.S02E04.1080p.AMZN.WEB-DL.DDP5.1.H.264-NTG.mkv ~ 1.466 GiB
Patriot.2017.S02E05.1080p.AMZN.WEB-DL.DDP5.1.H.264-NTG.mkv ~ 1.188 GiB
Patriot.2017.S02E06.1080p.AMZN.WEB-DL.DDP5.1.H.264-NTG.mkv ~ 1.342 GiB
Patriot.2017.S02E07.1080p.AMZN.WEB-DL.DDP5.1.H.264-NTG.mkv ~ 1004.6 MiB
Patriot.2017.S02E08.1080p.AMZN.WEB-DL.DDP5.1.H.264-NTG.mkv ~ 1.847 GiB
MediaInfo
General
Unique ID : 334462395038994505161795666336651152770 (0xFB9F1D3B67D43305A2271FB40D580D82)
Complete name : Patriot.2017.S02E08.1080p.AMZN.WEB-DL.DDP5.1.H.264-NTG.mkv
Format : Matroska
Format version : Version 4
File size : 1.85 GiB
Duration : 53 min 9 s
Overall bit rate mode : Variable
Overall bit rate : 4 974 kb/s
Movie name : Patriot.2017.S02E08.1080p.AMZN.WEB-DL.DDP5.1.H.264-NTG
Encoded date : UTC 2018-11-09 23:17:16
Writing application : mkvmerge v21.0.0 (‘Tardigrades Will Inherit The Earth’) 64-bit
Writing library : libebml v1.3.5 + libmatroska v1.4.8

Video
ID : 1
Format : AVC
Format/Info : Advanced Video Codec
Format profile : [email protected]
Format settings : CABAC / 4 Ref Frames
Format settings, CABAC : Yes
Format settings, Reference frames : 4 frames
Codec ID : V_MPEG4/ISO/AVC
Duration : 53 min 9 s
Bit rate mode : Variable
Bit rate : 4 330 kb/s
Maximum bit rate : 15.0 Mb/s
Width : 1 920 pixels
Height : 1 080 pixels
Display aspect ratio : 16:9
Frame rate mode : Constant
Frame rate : 23.976 (24000/1001) FPS
Color space : YUV
Chroma subsampling : 4:2:0
Bit depth : 8 bits
Scan type : Progressive
Bits/(Pixel*Frame) : 0.087
Stream size : 1.61 GiB (87%)
Default : Yes
Forced : No
Color range : Limited
Color primaries : BT.709
Transfer characteristics : BT.709
Matrix coefficients : BT.709

Audio
ID : 2
Format : E-AC-3
Format/Info : Enhanced AC-3
Commercial name : Dolby Digital Plus
Codec ID : A_EAC3
Duration : 53 min 9 s
Bit rate mode : Constant
Bit rate : 640 kb/s
Channel(s) : 6 channels
Channel layout : L R C LFE Ls Rs
Sampling rate : 48.0 kHz
Frame rate : 31.250 FPS (1536 SPF)
Compression mode : Lossy
Stream size : 243 MiB (13%)
Language : English
Service kind : Complete Main
Default : Yes
Forced : No

Text #1
ID : 3
Format : UTF-8
Codec ID : S_TEXT/UTF8
Codec ID/Info : UTF-8 Plain Text
Duration : 43 min 10 s
Bit rate : 8 b/s
Count of elements : 99
Stream size : 2.55 KiB (0%)
Title : Forced
Language : English
Default : Yes
Forced : Yes

Text #2
ID : 4
Format : UTF-8
Codec ID : S_TEXT/UTF8
Codec ID/Info : UTF-8 Plain Text
Duration : 51 min 4 s
Bit rate : 54 b/s
Count of elements : 766
Stream size : 20.4 KiB (0%)
Title : SDH
Language : English
Default : No
Forced : No

Text #3
ID : 5
Format : UTF-8
Codec ID : S_TEXT/UTF8
Codec ID/Info : UTF-8 Plain Text
Duration : 50 min 30 s
Bit rate : 60 b/s
Count of elements : 580
Stream size : 22.5 KiB (0%)
Language : Arabic
Default : No
Forced : No

Text #4
ID : 6
Format : UTF-8
Codec ID : S_TEXT/UTF8
Codec ID/Info : UTF-8 Plain Text
Duration : 50 min 30 s
Bit rate : 35 b/s
Count of elements : 580
Stream size : 13.2 KiB (0%)
Language : Chinese
Default : No
Forced : No

Text #5
ID : 7
Format : UTF-8
Codec ID : S_TEXT/UTF8
Codec ID/Info : UTF-8 Plain Text
Duration : 50 min 30 s
Bit rate : 35 b/s
Count of elements : 580
Stream size : 13.2 KiB (0%)
Language : Chinese
Default : No
Forced : No

Text #6
ID : 8
Format : UTF-8
Codec ID : S_TEXT/UTF8
Codec ID/Info : UTF-8 Plain Text
Duration : 50 min 30 s
Bit rate : 39 b/s
Count of elements : 577
Stream size : 14.5 KiB (0%)
Language : Danish
Default : No
Forced : No

Text #7
ID : 9
Format : UTF-8
Codec ID : S_TEXT/UTF8
Codec ID/Info : UTF-8 Plain Text
Duration : 50 min 30 s
Bit rate : 43 b/s
Count of elements : 522
Stream size : 16.0 KiB (0%)
Language : German
Default : No
Forced : No

Text #8
ID : 10
Format : UTF-8
Codec ID : S_TEXT/UTF8
Codec ID/Info : UTF-8 Plain Text
Duration : 50 min 30 s
Bit rate : 39 b/s
Count of elements : 576
Stream size : 14.7 KiB (0%)
Language : Spanish
Default : No
Forced : No

Text #9
ID : 11
Format : UTF-8
Codec ID : S_TEXT/UTF8
Codec ID/Info : UTF-8 Plain Text
Duration : 50 min 30 s
Bit rate : 39 b/s
Count of elements : 576
Stream size : 14.7 KiB (0%)
Language : Spanish
Default : No
Forced : No

Text #10
ID : 12
Format : UTF-8
Codec ID : S_TEXT/UTF8
Codec ID/Info : UTF-8 Plain Text
Duration : 50 min 30 s
Bit rate : 39 b/s
Count of elements : 578
Stream size : 14.7 KiB (0%)
Language : Finnish
Default : No
Forced : No

Text #11
ID : 13
Format : UTF-8
Codec ID : S_TEXT/UTF8
Codec ID/Info : UTF-8 Plain Text
Duration : 50 min 26 s
Bit rate : 31 b/s
Count of elements : 471
Stream size : 11.8 KiB (0%)
Language : French
Default : No
Forced : No

Text #12
ID : 14
Format : UTF-8
Codec ID : S_TEXT/UTF8
Codec ID/Info : UTF-8 Plain Text
Duration : 50 min 30 s
Bit rate : 108 b/s
Count of elements : 580
Stream size : 40.2 KiB (0%)
Language : Hindi
Default : No
Forced : No

Text #13
ID : 15
Format : UTF-8
Codec ID : S_TEXT/UTF8
Codec ID/Info : UTF-8 Plain Text
Duration : 50 min 30 s
Bit rate : 37 b/s
Count of elements : 577
Stream size : 13.9 KiB (0%)
Language : Indonesian
Default : No
Forced : No

Text #14
ID : 16
Format : UTF-8
Codec ID : S_TEXT/UTF8
Codec ID/Info : UTF-8 Plain Text
Duration : 50 min 30 s
Bit rate : 42 b/s
Count of elements : 577
Stream size : 15.9 KiB (0%)
Language : Italian
Default : No
Forced : No

Text #15
ID : 17
Format : UTF-8
Codec ID : S_TEXT/UTF8
Codec ID/Info : UTF-8 Plain Text
Duration : 50 min 30 s
Bit rate : 43 b/s
Count of elements : 580
Stream size : 16.0 KiB (0%)
Language : Korean
Default : No
Forced : No

Text #16
ID : 18
Format : UTF-8
Codec ID : S_TEXT/UTF8
Codec ID/Info : UTF-8 Plain Text
Duration : 50 min 30 s
Bit rate : 38 b/s
Count of elements : 579
Stream size : 14.4 KiB (0%)
Language : Norwegian Bokmal
Default : No
Forced : No

Text #17
ID : 19
Format : UTF-8
Codec ID : S_TEXT/UTF8
Codec ID/Info : UTF-8 Plain Text
Duration : 50 min 30 s
Bit rate : 37 b/s
Count of elements : 558
Stream size : 13.9 KiB (0%)
Language : Dutch
Default : No
Forced : No

Text #18
ID : 20
Format : UTF-8
Codec ID : S_TEXT/UTF8
Codec ID/Info : UTF-8 Plain Text
Duration : 50 min 30 s
Bit rate : 36 b/s
Count of elements : 578
Stream size : 13.3 KiB (0%)
Language : Polish
Default : No
Forced : No

Text #19
ID : 21
Format : UTF-8
Codec ID : S_TEXT/UTF8
Codec ID/Info : UTF-8 Plain Text
Duration : 50 min 30 s
Bit rate : 41 b/s
Count of elements : 577
Stream size : 15.5 KiB (0%)
Language : Portuguese
Default : No
Forced : No

Text #20
ID : 22
Format : UTF-8
Codec ID : S_TEXT/UTF8
Codec ID/Info : UTF-8 Plain Text
Duration : 50 min 30 s
Bit rate : 65 b/s
Count of elements : 580
Stream size : 24.2 KiB (0%)
Language : Russian
Default : No
Forced : No

Text #21
ID : 23
Format : UTF-8
Codec ID : S_TEXT/UTF8
Codec ID/Info : UTF-8 Plain Text
Duration : 50 min 30 s
Bit rate : 37 b/s
Count of elements : 577
Stream size : 14.0 KiB (0%)
Language : Swedish
Default : No
Forced : No

Text #22
ID : 24
Format : UTF-8
Codec ID : S_TEXT/UTF8
Codec ID/Info : UTF-8 Plain Text
Duration : 50 min 30 s
Bit rate : 118 b/s
Count of elements : 580
Stream size : 43.8 KiB (0%)
Language : Tamil
Default : No
Forced : No

Text #23
ID : 25
Format : UTF-8
Codec ID : S_TEXT/UTF8
Codec ID/Info : UTF-8 Plain Text
Duration : 50 min 30 s
Bit rate : 118 b/s
Count of elements : 580
Stream size : 43.8 KiB (0%)
Language : Telugu
Default : No
Forced : No

Text #24
ID : 26
Format : UTF-8
Codec ID : S_TEXT/UTF8
Codec ID/Info : UTF-8 Plain Text
Duration : 50 min 30 s
Bit rate : 38 b/s
Count of elements : 578
Stream size : 14.2 KiB (0%)
Language : Turkish
Default : No
Forced : No

Menu
00:00:00.000 : Amazon Original
00:00:05.000 : I’m so sorry
00:08:21.000 : Opening Credits
00:09:46.000 : Sunday Morning
00:12:39.000 : Checking on Charlie
00:14:14.000 : Getaway car
00:17:01.000 : Tom is brought in for questioning
00:24:12.000 : Travelling North
00:29:01.000 : Passing through Calais
00:34:31.000 : The boat
00:38:27.000 : Reassurance
00:42:41.000 : Pretty Good
00:45:17.000 : You’re in England
00:51:26.000 : End Credits

Direct Link Download

Leave a Reply

Your email address will not be published.