Jimmy Fallon 2022 03 24 Ethan Hawke 720p WEB H264-GLHF

After Jay Leno’s second retirement from the program, Jimmy Fallon stepped in as his permanent replacement. After 42 years in Los Angeles the program was brought back to New York.
Download

Jimmy Fallon 2022 03 24 Ethan Hawke 720p WEB H264-GLHF – 1.38 GB
mkv | 1280×720 | 4828 Kbps | A_EAC3 at 192 Kbps
Links: RapidGatorMultiUP (Google Drive, Uptobox, 1fichier)
Pass: v3;eezma!1

MediaInfo
General
Unique ID : 171604012931234737824605915936050961970 (0x8119BB0FB0186EC024CCDF35FA90DE32)
Complete name : jimmy.fallon.2022.03.24.ethan.hawke.720p.web.h264-glhf.mkv
Format : Matroska
Format version : Version 4
File size : 1.38 GiB
Duration : 40 min 56 s
Overall bit rate : 4 828 kb/s
Writing application : mkvmerge v49.0.0 (‘Sick Of Losing Soulmates’) 64-bit
Writing library : libebml v1.4.0 + libmatroska v1.6.1

Video
ID : 1
Format : AVC
Format/Info : Advanced Video Codec
Format profile : [email protected]
Format settings : CABAC / 4 Ref Frames
Format settings, CABAC : Yes
Format settings, Reference frames : 4 frames
Codec ID : V_MPEG4/ISO/AVC
Duration : 40 min 56 s
Bit rate : 4 540 kb/s
Nominal bit rate : 4 814 kb/s
Width : 1 280 pixels
Height : 720 pixels
Display aspect ratio : 16:9
Frame rate mode : Constant
Frame rate : 29.970 (30000/1001) FPS
Color space : YUV
Chroma subsampling : 4:2:0
Bit depth : 8 bits
Scan type : Progressive
Bits/(Pixel*Frame) : 0.164
Stream size : 1.30 GiB (94%)
Writing library : x264 core 163 r3060 5db6aa6
Encoding settings : cabac=1 / ref=4 / deblock=1:0:0 / analyse=0x3:0x113 / me=umh / subme=7 / psy=1 / psy_rd=0.00:0.00 / mixed_ref=1 / me_range=16 / chroma_me=1 / trellis=1 / 8x8dct=1 / cqm=0 / deadzone=21,11 / fast_pskip=0 / chroma_qp_offset=0 / threads=22 / lookahead_threads=3 / sliced_threads=0 / nr=0 / decimate=1 / interlaced=0 / bluray_compat=0 / constrained_intra=0 / bframes=16 / b_pyramid=2 / b_adapt=1 / b_bias=0 / direct=1 / weightb=1 / open_gop=0 / weightp=2 / keyint=60 / keyint_min=6 / scenecut=0 / intra_refresh=0 / rc_lookahead=40 / rc=2pass / mbtree=1 / bitrate=4814 / ratetol=1.0 / qcomp=0.60 / qpmin=10 / qpmax=51 / qpstep=4 / cplxblur=20.0 / qblur=0.5 / vbv_maxrate=4814 / vbv_bufsize=4814 / nal_hrd=none / filler=0 / ip_ratio=1.41 / aq=1:1.00
Default : Yes
Forced : No

Audio
ID : 2
Format : E-AC-3
Format/Info : Enhanced AC-3
Commercial name : Dolby Digital Plus
Codec ID : A_EAC3
Duration : 40 min 56 s
Bit rate mode : Constant
Bit rate : 192 kb/s
Channel(s) : 6 channels
Channel layout : L R C LFE Ls Rs
Sampling rate : 48.0 kHz
Frame rate : 31.250 FPS (1536 SPF)
Compression mode : Lossy
Stream size : 56.2 MiB (4%)
Language : English
Service kind : Complete Main
Default : Yes
Forced : No

Text
ID : 3
Format : UTF-8
Codec ID : S_TEXT/UTF8
Codec ID/Info : UTF-8 Plain Text
Title : English
Language : English
Default : No
Forced : No

Direct Link Download

Leave a Reply

Your email address will not be published.