Greys Anatomy S18E13 1080p AMZN WEB-DL DDP5 1 H 264-NOSiViD

Follows the personal and professional lives of a group of doctors at Seattle’s Grey Sloan Memorial Hospital.
Download

Greys Anatomy S18E13 1080p AMZN WEB-DL DDP5 1 H 264-NOSiViD – 2.78 GB
mkv | 1920×1080 | 9492 Kbps | A_EAC3 at 640 Kbps
Links: RapidGatorMultiUP (Google Drive, Uptobox, 1fichier)
Pass: a-ufcw8<x3

MediaInfo
General
Unique ID : 285222919431908539320907962410789037108 (0xD693EFA69AF8F7411744D7F6E05CE434)
Complete name : Greys.Anatomy.S18E13.1080p.AMZN.WEB-DL.DDP5.1.H.264-NOSiViD.mkv
Format : Matroska
Format version : Version 4
File size : 2.78 GiB
Duration : 41 min 51 s
Overall bit rate : 9 492 kb/s
Movie name : Grey’s Anatomy – S18E13 – Put the Squeeze on Me
Writing application : mkvmerge v64.0.0 (‘Willows’) 64-bit
Writing library : libebml v1.4.2 + libmatroska v1.6.4
IMDB : tt0413573
TMDB : tv/1416
TVDB : 73762

Video
ID : 1
Format : AVC
Format/Info : Advanced Video Codec
Format profile : [email protected]
Format settings : CABAC / 4 Ref Frames
Format settings, CABAC : Yes
Format settings, Reference frames : 4 frames
Codec ID : V_MPEG4/ISO/AVC
Duration : 41 min 51 s
Bit rate mode : Constant
Bit rate : 8 850 kb/s
Nominal bit rate : 10 000 kb/s
Width : 1 920 pixels
Height : 1 080 pixels
Display aspect ratio : 16:9
Frame rate mode : Constant
Frame rate : 23.976 (24000/1001) FPS
Color space : YUV
Chroma subsampling : 4:2:0
Bit depth : 8 bits
Scan type : Progressive
Bits/(Pixel*Frame) : 0.178
Stream size : 2.59 GiB (93%)
Default : No
Forced : No
Color range : Limited
Color primaries : BT.709
Transfer characteristics : BT.709
Matrix coefficients : BT.709

Audio
ID : 2
Format : E-AC-3
Format/Info : Enhanced AC-3
Commercial name : Dolby Digital Plus
Codec ID : A_EAC3
Duration : 41 min 51 s
Bit rate mode : Constant
Bit rate : 640 kb/s
Channel(s) : 6 channels
Channel layout : L R C LFE Ls Rs
Sampling rate : 48.0 kHz
Frame rate : 31.250 FPS (1536 SPF)
Compression mode : Lossy
Stream size : 192 MiB (7%)
Language : English
Service kind : Complete Main
Default : No
Forced : No

Text #1
ID : 3
Format : UTF-8
Codec ID : S_TEXT/UTF8
Codec ID/Info : UTF-8 Plain Text
Duration : 40 min 37 s
Bit rate : 102 b/s
Count of elements : 986
Stream size : 30.5 KiB (0%)
Language : English
Default : No
Forced : No

Text #2
ID : 4
Format : UTF-8
Codec ID : S_TEXT/UTF8
Codec ID/Info : UTF-8 Plain Text
Duration : 41 min 34 s
Bit rate : 113 b/s
Count of elements : 1172
Stream size : 34.6 KiB (0%)
Title : SDH
Language : English
Default : No
Forced : No

Menu
00:40:56.000 : Credits

Direct Link Download

Leave a Reply

Your email address will not be published.