Big Sky 2020 S02E13 720p WEB h264-GOSSIP

Private detective Cassie Dewell partners with ex-cop Jenny Hoyt on a search for two sisters who have been kidnapped by a truck driver on a remote highway in Montana. When they discover that these are not the only girls who have disappeared in the area, they must race against the clock to stop the perpetrator before another woman is taken.
Download

Big Sky 2020 S02E13 720p WEB h264-GOSSIP – 1.31 GB
mkv | 1280×720 | 4429 Kbps | A_EAC3 at 640 Kbps
Links: RapidGatorMultiUP (Google Drive, Uptobox, 1fichier)
Pass: p9<tw<c8oz

MediaInfo
General
Unique ID : 207957496164590386506538984762894343013 (0x9C73282AC013C77AAF6E5A177A925B65)
Complete name : Big.Sky.2020.S02E13.720p.WEB.h264-GOSSIP.mkv
Format : Matroska
Format version : Version 4
File size : 1.31 GiB
Duration : 42 min 28 s
Overall bit rate : 4 429 kb/s
Encoded date : UTC 2022-03-25 04:41:20
Writing application : mkvmerge v66.0.0 (‘Josie’) 64-bit
Writing library : libebml v1.4.2 + libmatroska v1.6.4

Video
ID : 1
Format : AVC
Format/Info : Advanced Video Codec
Format profile : [email protected]
Format settings : CABAC / 4 Ref Frames
Format settings, CABAC : Yes
Format settings, Reference frames : 4 frames
Codec ID : V_MPEG4/ISO/AVC
Duration : 42 min 28 s
Bit rate mode : Constant
Bit rate : 3 787 kb/s
Nominal bit rate : 6 000 kb/s
Width : 1 280 pixels
Height : 720 pixels
Display aspect ratio : 16:9
Frame rate mode : Constant
Frame rate : 23.976 (24000/1001) FPS
Color space : YUV
Chroma subsampling : 4:2:0
Bit depth : 8 bits
Scan type : Progressive
Bits/(Pixel*Frame) : 0.171
Stream size : 1.12 GiB (86%)
Language : English
Default : Yes
Forced : No
Color range : Limited
Color primaries : BT.709
Transfer characteristics : BT.709
Matrix coefficients : BT.709

Audio
ID : 2
Format : E-AC-3
Format/Info : Enhanced AC-3
Commercial name : Dolby Digital Plus
Codec ID : A_EAC3
Duration : 42 min 28 s
Bit rate mode : Constant
Bit rate : 640 kb/s
Channel(s) : 6 channels
Channel layout : L R C LFE Ls Rs
Sampling rate : 48.0 kHz
Frame rate : 31.250 FPS (1536 SPF)
Compression mode : Lossy
Stream size : 194 MiB (14%)
Language : English
Service kind : Complete Main
Default : Yes
Forced : No

Text
ID : 3
Format : UTF-8
Codec ID : S_TEXT/UTF8
Codec ID/Info : UTF-8 Plain Text
Duration : 42 min 17 s
Bit rate : 71 b/s
Count of elements : 858
Stream size : 22.2 KiB (0%)
Title : English
Language : English
Default : No
Forced : No

Direct Link Download

Leave a Reply

Your email address will not be published.