The Greatest Inheritance 2022 1080p WEB-DL DD5 1 H 264-EVO

Estranged siblings return home to bury their mother and claim their inheritance, only to discover that their deceased mother has hidden the deed to the entire estate somewhere on the property.
Download

The Greatest Inheritance 2022 1080p WEB-DL DD5 1 H 264-EVO – 4.73 GB
mkv | 1912×712 | 6890 Kbps | A_AC3 at 384 Kbps
Links: RapidGatorMultiUP (Google Drive, Uptobox, 1fichier)
Pass: t7yd4p,jg92_zd

MediaInfo
General
Unique ID : 254225963039098734057810196938351757587 (0xBF4223B556DD106229491B3EF294C913)
Complete name : The.Greatest.Inheritance.2022.1080p.WEB-DL.DD5.1.H.264-EVO.mkv
Format : Matroska
Format version : Version 4
File size : 4.73 GiB
Duration : 1 h 38 min
Overall bit rate : 6 890 kb/s
Encoded date : UTC 2022-03-24 23:01:50
Writing application : mkvmerge v65.0.0 (‘Too Much’) 64-bit
Writing library : libebml v1.4.2 + libmatroska v1.6.4

Video
ID : 1
Format : AVC
Format/Info : Advanced Video Codec
Format profile : [email protected]
Format settings : CABAC / 5 Ref Frames
Format settings, CABAC : Yes
Format settings, Reference frames : 5 frames
Codec ID : V_MPEG4/ISO/AVC
Duration : 1 h 38 min
Bit rate : 6 504 kb/s
Width : 1 912 pixels
Height : 712 pixels
Display aspect ratio : 2.685
Frame rate mode : Constant
Frame rate : 23.976 (24000/1001) FPS
Color space : YUV
Chroma subsampling : 4:2:0
Bit depth : 8 bits
Scan type : Progressive
Bits/(Pixel*Frame) : 0.199
Stream size : 4.46 GiB (94%)
Default : Yes
Forced : No
Color range : Limited
Color primaries : BT.709
Transfer characteristics : BT.709
Matrix coefficients : BT.709

Audio
ID : 2
Format : AC-3
Format/Info : Audio Coding 3
Commercial name : Dolby Digital
Codec ID : A_AC3
Duration : 1 h 38 min
Bit rate mode : Constant
Bit rate : 384 kb/s
Channel(s) : 6 channels
Channel layout : L R C LFE Ls Rs
Sampling rate : 48.0 kHz
Frame rate : 31.250 FPS (1536 SPF)
Compression mode : Lossy
Stream size : 270 MiB (6%)
Language : English
Service kind : Complete Main
Default : Yes
Forced : No

Direct Link Download

Leave a Reply

Your email address will not be published.