SIX S01 1080p Bluray x265-HiQVE

Action drama series inspired by the real missions of Navy SEAL Team Six.
Download

SIX S01 1080p Bluray x265-HiQVE – 10.47 GB
part1.rar | N/AxN/A | N/A | N/A at N/A
Links: RapidGatorMultiUP (Google Drive, Uptobox, 1fichier)
Pass: 6e>gz_ul3h

Episode List
SIX.S01E01.1080p.Bluray.x265-HiQVE.mkv ~ 1.256 GiB
SIX.S01E02.1080p.Bluray.x265-HiQVE.mkv ~ 1.295 GiB
SIX.S01E03.1080p.Bluray.x265-HiQVE.mkv ~ 1.322 GiB
SIX.S01E04.1080p.Bluray.x265-HiQVE.mkv ~ 1.303 GiB
SIX.S01E05.1080p.Bluray.x265-HiQVE.mkv ~ 1.315 GiB
SIX.S01E06.1080p.Bluray.x265-HiQVE.mkv ~ 1.317 GiB
SIX.S01E07.1080p.Bluray.x265-HiQVE.mkv ~ 1.312 GiB
SIX.S01E08.1080p.Bluray.x265-HiQVE.mkv ~ 1.349 GiB
MediaInfo
General
Unique ID : 329656502282389149442147453552643438921 (0xF801886CD6F338F098475949DCF67949)
Complete name : SIX.S01E08.1080p.Bluray.x265-HiQVE.mkv
Format : Matroska
Format version : Version 4
File size : 1.35 GiB
Duration : 44 min 12 s
Overall bit rate : 4 369 kb/s
Movie name : SIX.S01E08.1080p.Bluray.x265-HiQVE
Encoded date : UTC 2022-03-24 21:55:46
Writing application : mkvmerge v63.0.0 (‘Everything’) 64-bit
Writing library : libebml v1.4.2 + libmatroska v1.6.4 / Lavf58.76.100
RELEASE_NAME : HiQVE Encode

Video
ID : 1
Format : HEVC
Format/Info : High Efficiency Video Coding
Format profile : Main [email protected]@Main
Codec ID : V_MPEGH/ISO/HEVC
Duration : 44 min 12 s
Bit rate : 3 919 kb/s
Width : 1 920 pixels
Height : 1 080 pixels
Display aspect ratio : 16:9
Frame rate mode : Variable
Frame rate : 23.976 FPS
Color space : YUV
Chroma subsampling : 4:2:0
Bit depth : 10 bits
Bits/(Pixel*Frame) : 0.079
Stream size : 1.21 GiB (90%)
Writing library : Lavc58.134.100 libx265
Default : Yes
Forced : No
Color range : Full
colour_range_Original : Limited
Color primaries : BT.709
Transfer characteristics : BT.709
Matrix coefficients : BT.709

Audio
ID : 2
Format : AC-3
Format/Info : Audio Coding 3
Commercial name : Dolby Digital
Codec ID : A_AC3
Duration : 44 min 12 s
Bit rate mode : Constant
Bit rate : 448 kb/s
Channel(s) : 6 channels
Channel layout : L R C LFE Ls Rs
Sampling rate : 48.0 kHz
Frame rate : 31.250 FPS (1536 SPF)
Bit depth : 16 bits
Compression mode : Lossy
Stream size : 142 MiB (10%)
Writing library : Lavc58.134.100 ac3
Service kind : Complete Main
Default : Yes
Forced : No

Text
ID : 3
Format : UTF-8
Codec ID : S_TEXT/UTF8
Codec ID/Info : UTF-8 Plain Text
Duration : 43 min 27 s
Bit rate : 43 b/s
Count of elements : 524
Stream size : 13.7 KiB (0%)
Title : English
Language : English
Default : Yes
Forced : Yes

Menu
00:00:00.000 : 00:00:00.000
00:09:38.286 : 00:09:38.286
00:19:37.968 : 00:19:37.968
00:31:11.828 : 00:31:11.828

Direct Link Download

Leave a Reply

Your email address will not be published.