The Ghost and Molly McGee S01 1080p HULU WEBRip DDP5 1 x264-NTb

When a curse from Scratch backfires, he finds himself forever bound to Molly. Despite that, Scratch and Molly form an unlikely friendship that guides each of them through the ups and downs of their respective worlds!
Download

The Ghost and Molly McGee S01 1080p HULU WEBRip DDP5 1 x264-NTb – 16.46 GB
part1.rar | N/AxN/A | N/A | N/A at N/A
Links: RapidGatorMultiUP (Google Drive, Uptobox, 1fichier)
Pass: j2o0zx$pk

Episode List
The.Ghost.and.Molly.McGee.S01E01.1080p.HULU.WEB-DL.DD+5.1.H.264-NTb.mkv ~ 463.0 MiB
The.Ghost.and.Molly.McGee.S01E02.1080p.HULU.WEB-DL.DD+5.1.H.264-NTb.mkv ~ 398.4 MiB
The.Ghost.and.Molly.McGee.S01E03.1080p.HULU.WEB-DL.DD+5.1.H.264-NTb.mkv ~ 450.4 MiB
The.Ghost.and.Molly.McGee.S01E04.1080p.HULU.WEB-DL.DD+5.1.H.264-NTb.mkv ~ 431.4 MiB
The.Ghost.and.Molly.McGee.S01E05.1080p.HULU.WEB-DL.DD+5.1.H.264-NTb.mkv ~ 407.4 MiB
The.Ghost.and.Molly.McGee.S01E06.1080p.HULU.WEB-DL.DD+5.1.H.264-NTb.mkv ~ 423.1 MiB
The.Ghost.and.Molly.McGee.S01E07.1080p.HULU.WEB-DL.DD+5.1.H.264-NTb.mkv ~ 446.9 MiB
The.Ghost.and.Molly.McGee.S01E08.1080p.HULU.WEB-DL.DD+5.1.H.264-NTb.mkv ~ 386.1 MiB
The.Ghost.and.Molly.McGee.S01E09.1080p.HULU.WEB-DL.DD+5.1.H.264-NTb.mkv ~ 389.5 MiB
The.Ghost.and.Molly.McGee.S01E10.1080p.HULU.WEB-DL.DD+5.1.H.264-NTb.mkv ~ 404.1 MiB
The.Ghost.and.Molly.McGee.S01E11.1080p.HULU.WEB-DL.DD+5.1.H.264-NTb.mkv ~ 423.8 MiB
The.Ghost.and.Molly.McGee.S01E12.1080p.HULU.WEB-DL.DD+5.1.H.264-NTb.mkv ~ 421.2 MiB
The.Ghost.and.Molly.McGee.S01E13.1080p.HULU.WEB-DL.DD+5.1.H.264-NTb.mkv ~ 416.3 MiB
The.Ghost.and.Molly.McGee.S01E14.1080p.HULU.WEB-DL.DD+5.1.H.264-NTb.mkv ~ 420.0 MiB
The.Ghost.and.Molly.McGee.S01E15.1080p.HULU.WEB-DL.DD+5.1.H.264-NTb.mkv ~ 461.7 MiB
The.Ghost.and.Molly.McGee.S01E16.1080p.HULU.WEB-DL.DD+5.1.H.264-NTb.mkv ~ 399.7 MiB
The.Ghost.and.Molly.McGee.S01E17.1080p.HULU.WEB-DL.DD+5.1.H.264-NTb.mkv ~ 450.8 MiB
The.Ghost.and.Molly.McGee.S01E18.1080p.HULU.WEB-DL.DD+5.1.H.264-NTb.mkv ~ 417.4 MiB
The.Ghost.and.Molly.McGee.S01E19.1080p.HULU.WEB-DL.DD+5.1.H.264-NTb.mkv ~ 399.7 MiB
The.Ghost.and.Molly.McGee.S01E20.1080p.HULU.WEB-DL.DD+5.1.H.264-NTb.mkv ~ 424.0 MiB
The.Ghost.and.Molly.McGee.S01E21.1080p.HULU.WEB-DL.DD+5.1.H.264-NTb.mkv ~ 436.4 MiB
The.Ghost.and.Molly.McGee.S01E22.1080p.HULU.WEB-DL.DD+5.1.H.264-NTb.mkv ~ 456.0 MiB
The.Ghost.and.Molly.McGee.S01E23.1080p.HULU.WEB-DL.DD+5.1.H.264-NTb.mkv ~ 442.9 MiB
The.Ghost.and.Molly.McGee.S01E24.1080p.HULU.WEB-DL.DD+5.1.H.264-NTb.mkv ~ 388.0 MiB
The.Ghost.and.Molly.McGee.S01E25.1080p.HULU.WEB-DL.DD+5.1.H.264-NTb.mkv ~ 389.2 MiB
The.Ghost.and.Molly.McGee.S01E26.1080p.HULU.WEB-DL.DD+5.1.H.264-NTb.mkv ~ 438.4 MiB
The.Ghost.and.Molly.McGee.S01E27.1080p.HULU.WEB-DL.DD+5.1.H.264-NTb.mkv ~ 438.7 MiB
The.Ghost.and.Molly.McGee.S01E28.1080p.HULU.WEB-DL.DD+5.1.H.264-NTb.mkv ~ 400.5 MiB
The.Ghost.and.Molly.McGee.S01E29.1080p.HULU.WEB-DL.DD+5.1.H.264-NTb.mkv ~ 402.0 MiB
The.Ghost.and.Molly.McGee.S01E30.1080p.HULU.WEB-DL.DD+5.1.H.264-NTb.mkv ~ 396.2 MiB
The.Ghost.and.Molly.McGee.S01E31.1080p.HULU.WEB-DL.DD+5.1.H.264-NTb.mkv ~ 443.1 MiB
The.Ghost.and.Molly.McGee.S01E32.1080p.HULU.WEB-DL.DD+5.1.H.264-NTb.mkv ~ 406.9 MiB
The.Ghost.and.Molly.McGee.S01E33.1080p.HULU.WEB-DL.DD+5.1.H.264-NTb.mkv ~ 444.7 MiB
The.Ghost.and.Molly.McGee.S01E34.1080p.HULU.WEB-DL.DD+5.1.H.264-NTb.mkv ~ 401.9 MiB
The.Ghost.and.Molly.McGee.S01E35.1080p.HULU.WEB-DL.DD+5.1.H.264-NTb.mkv ~ 430.2 MiB
The.Ghost.and.Molly.McGee.S01E36.1080p.HULU.WEB-DL.DD+5.1.H.264-NTb.mkv ~ 412.1 MiB
The.Ghost.and.Molly.McGee.S01E37.1080p.HULU.WEB-DL.DD+5.1.H.264-NTb.mkv ~ 463.2 MiB
The.Ghost.and.Molly.McGee.S01E38.1080p.HULU.WEB-DL.DD+5.1.H.264-NTb.mkv ~ 344.6 MiB
The.Ghost.and.Molly.McGee.S01E39.1080p.HULU.WEB-DL.DD+5.1.H.264-NTb.mkv ~ 434.8 MiB
The.Ghost.and.Molly.McGee.S01E40.1080p.HULU.WEB-DL.DD+5.1.H.264-NTb.mkv ~ 450.8 MiB
MediaInfo
General
Unique ID : 57483400810608735316758845463281764515 (0x2B3EE67994068A906628C850E32388A3)
Complete name : The.Ghost.and.Molly.McGee.S01E40.1080p.HULU.WEB-DL.DD+5.1.H.264-NTb.mkv
Format : Matroska
Format version : Version 4
File size : 451 MiB
Duration : 11 min 13 s
Overall bit rate : 5 619 kb/s
Movie name : The.Ghost.and.Molly.McGee.S01E40.1080p.HULU.WEB-DL.DD+5.1.H.264-NTb
Encoded date : UTC 2022-07-09 14:36:04
Writing application : mkvmerge v68.0.0 (‘The Curtain’) 64-bit
Writing library : libebml v1.4.2 + libmatroska v1.6.4

Video
ID : 1
Format : AVC
Format/Info : Advanced Video Codec
Format profile : [email protected]
Format settings : CABAC / 4 Ref Frames
Format settings, CABAC : Yes
Format settings, Reference frames : 4 frames
Codec ID : V_MPEG4/ISO/AVC
Duration : 11 min 12 s
Bit rate : 5 361 kb/s
Width : 1 920 pixels
Height : 1 080 pixels
Display aspect ratio : 16:9
Frame rate mode : Constant
Frame rate : 23.976 (24000/1001) FPS
Color space : YUV
Chroma subsampling : 4:2:0
Bit depth : 8 bits
Scan type : Progressive
Bits/(Pixel*Frame) : 0.108
Stream size : 430 MiB (95%)
Default : Yes
Forced : No

Audio
ID : 2
Format : E-AC-3
Format/Info : Enhanced AC-3
Commercial name : Dolby Digital Plus
Codec ID : A_EAC3
Duration : 11 min 12 s
Bit rate mode : Constant
Bit rate : 256 kb/s
Channel(s) : 6 channels
Channel layout : L R C LFE Ls Rs
Sampling rate : 48.0 kHz
Frame rate : 31.250 FPS (1536 SPF)
Compression mode : Lossy
Delay relative to video : 31 ms
Stream size : 20.5 MiB (5%)
Language : English
Service kind : Complete Main
Default : Yes
Forced : No

Text #1
ID : 3
Format : UTF-8
Codec ID : S_TEXT/UTF8
Codec ID/Info : UTF-8 Plain Text
Duration : 10 min 32 s
Bit rate : 84 b/s
Count of elements : 208
Stream size : 6.52 KiB (0%)
Language : English
Default : No
Forced : No

Text #2
ID : 4
Format : UTF-8
Codec ID : S_TEXT/UTF8
Codec ID/Info : UTF-8 Plain Text
Duration : 10 min 39 s
Bit rate : 93 b/s
Count of elements : 237
Stream size : 7.31 KiB (0%)
Title : SDH
Language : English
Default : No
Forced : No

Menu
00:00:00.000 : Chapter 3

Direct Link Download

Leave a Reply

Your email address will not be published.