Static Shock S04 720p HMAX WEBRip DD2 0 x264-NTb

The adventures of a teenage superhero who fights crime in Dakota City.
Download

Static Shock S04 720p HMAX WEBRip DD2 0 x264-NTb – 7.25 GB
part1.rar | N/AxN/A | N/A | N/A at N/A
Links: RapidGatorMultiUP (Google Drive, Uptobox, 1fichier)
Pass: @vpsmwg;12

Episode List
Static.Shock.S04E01.720p.HMAX.WEB-DL.DD2.0.H.264-NTb.mkv ~ 575.1 MiB
Static.Shock.S04E02.720p.HMAX.WEB-DL.DD2.0.H.264-NTb.mkv ~ 575.0 MiB
Static.Shock.S04E03.720p.HMAX.WEB-DL.DD2.0.H.264-NTb.mkv ~ 575.6 MiB
Static.Shock.S04E04.720p.HMAX.WEB-DL.DD2.0.H.264-NTb.mkv ~ 571.4 MiB
Static.Shock.S04E05.720p.HMAX.WEB-DL.DD2.0.H.264-NTb.mkv ~ 567.6 MiB
Static.Shock.S04E06.720p.HMAX.WEB-DL.DD2.0.H.264-NTb.mkv ~ 572.0 MiB
Static.Shock.S04E07.720p.HMAX.WEB-DL.DD2.0.H.264-NTb.mkv ~ 570.2 MiB
Static.Shock.S04E08.720p.HMAX.WEB-DL.DD2.0.H.264-NTb.mkv ~ 571.1 MiB
Static.Shock.S04E09.720p.HMAX.WEB-DL.DD2.0.H.264-NTb.mkv ~ 571.2 MiB
Static.Shock.S04E10.720p.HMAX.WEB-DL.DD2.0.H.264-NTb.mkv ~ 563.7 MiB
Static.Shock.S04E11.720p.HMAX.WEB-DL.DD2.0.H.264-NTb.mkv ~ 565.2 MiB
Static.Shock.S04E12.720p.HMAX.WEB-DL.DD2.0.H.264-NTb.mkv ~ 570.8 MiB
Static.Shock.S04E13.720p.HMAX.WEB-DL.DD2.0.H.264-NTb.mkv ~ 573.0 MiB
MediaInfo
General
Unique ID : 329750036891400606021586627407334661805 (0xF8138C0994BC3A1DC7E494BA97A4DEAD)
Complete name : Static.Shock.S04E13.720p.HMAX.WEB-DL.DD2.0.H.264-NTb.mkv
Format : Matroska
Format version : Version 4
File size : 573 MiB
Duration : 21 min 11 s
Overall bit rate mode : Variable
Overall bit rate : 3 779 kb/s
Movie name : Static.Shock.S04E13.720p.HMAX.WEB-DL.DD2.0.H.264-NTb
Writing application : mkvmerge v68.0.0 (‘The Curtain’) 64-bit
Writing library : libebml v1.4.2 + libmatroska v1.6.4

Video
ID : 1
Format : AVC
Format/Info : Advanced Video Codec
Format profile : [email protected]
Format settings : CABAC / 4 Ref Frames
Format settings, CABAC : Yes
Format settings, Reference frames : 4 frames
Codec ID : V_MPEG4/ISO/AVC
Duration : 21 min 11 s
Bit rate mode : Variable
Bit rate : 3 400 kb/s
Maximum bit rate : 5 100 kb/s
Width : 960 pixels
Height : 720 pixels
Display aspect ratio : 4:3
Frame rate mode : Constant
Frame rate : 23.976 (24000/1001) FPS
Color space : YUV
Chroma subsampling : 4:2:0
Bit depth : 8 bits
Scan type : Progressive
Bits/(Pixel*Frame) : 0.205
Stream size : 514 MiB (90%)
Writing library : x264 core 157 r2965 861cec4
Encoding settings : cabac=1 / ref=4 / deblock=1:0:0 / analyse=0x1:0x111 / me=hex / subme=7 / psy=1 / psy_rd=1.00:0.00 / mixed_ref=1 / me_range=16 / chroma_me=1 / trellis=1 / 8x8dct=0 / cqm=0 / deadzone=21,11 / fast_pskip=1 / chroma_qp_offset=-2 / threads=22 / lookahead_threads=3 / sliced_threads=0 / nr=0 / decimate=1 / interlaced=0 / bluray_compat=0 / constrained_intra=0 / bframes=3 / b_pyramid=2 / b_adapt=1 / b_bias=0 / direct=1 / weightb=1 / open_gop=0 / weightp=2 / keyint=96 / keyint_min=96 / scenecut=40 / intra_refresh=0 / rc_lookahead=40 / rc=2pass / mbtree=1 / bitrate=3400 / ratetol=1.0 / qcomp=0.60 / qpmin=0 / qpmax=69 / qpstep=4 / cplxblur=20.0 / qblur=0.5 / vbv_maxrate=5100 / vbv_bufsize=2550 / nal_hrd=vbr / filler=0 / ip_ratio=1.40 / aq=1:1.00
Default : Yes
Forced : No
Color range : Limited
Color primaries : BT.709
Transfer characteristics : BT.709
Matrix coefficients : BT.709

Audio
ID : 2
Format : AC-3
Format/Info : Audio Coding 3
Commercial name : Dolby Digital
Codec ID : A_AC3
Duration : 21 min 11 s
Bit rate mode : Constant
Bit rate : 384 kb/s
Channel(s) : 2 channels
Channel layout : L R
Sampling rate : 48.0 kHz
Frame rate : 31.250 FPS (1536 SPF)
Compression mode : Lossy
Stream size : 58.2 MiB (10%)
Language : English
Service kind : Complete Main
Default : Yes
Forced : No

Text #1
ID : 3
Format : UTF-8
Codec ID : S_TEXT/UTF8
Codec ID/Info : UTF-8 Plain Text
Duration : 20 min 25 s
Bit rate : 68 b/s
Count of elements : 369
Stream size : 10.3 KiB (0%)
Language : English
Default : No
Forced : No

Text #2
ID : 4
Format : UTF-8
Codec ID : S_TEXT/UTF8
Codec ID/Info : UTF-8 Plain Text
Duration : 20 min 42 s
Bit rate : 74 b/s
Count of elements : 444
Stream size : 11.3 KiB (0%)
Title : SDH
Language : English
Default : No
Forced : No

Menu
00:00:04.421 : Intro
00:01:04.607 : Chapter 1
00:20:41.000 : Credits

Direct Link Download

Leave a Reply

Your email address will not be published.