Solar Opposites S03 1080p HULU WEBRip DDP5 1 x264-CAKES

A family of aliens from a much better world must take refuge in middle America after the destruction of their planet. Their mission: protect the Pupa, a living super computer that will one day evolve into its true form, consume them and terraform the Earth.
Download

Solar Opposites S03 1080p HULU WEBRip DDP5 1 x264-CAKES – 5.85 GB
part1.rar | N/AxN/A | N/A | N/A at N/A
Links: RapidGatorMultiUP (Google Drive, Uptobox, 1fichier)
Pass: 8uaw#i;bv1

Episode List
Solar.Opposites.S03E01.1080p.WEB.H264-CAKES.mkv ~ 549.5 MiB
Solar.Opposites.S03E02.1080p.WEB.H264-CAKES.mkv ~ 595.4 MiB
Solar.Opposites.S03E03.1080p.WEB.H264-CAKES.mkv ~ 403.8 MiB
Solar.Opposites.S03E04.1080p.WEB.H264-CAKES.mkv ~ 483.9 MiB
Solar.Opposites.S03E05.1080p.WEB.H264-CAKES.mkv ~ 554.3 MiB
Solar.Opposites.S03E06.1080p.WEB.H264-CAKES.mkv ~ 696.7 MiB
Solar.Opposites.S03E07.1080p.WEB.H264-CAKES.mkv ~ 499.9 MiB
Solar.Opposites.S03E08.1080p.WEB.H264-CAKES.mkv ~ 570.4 MiB
Solar.Opposites.S03E09.1080p.WEB.H264-CAKES.mkv ~ 484.1 MiB
Solar.Opposites.S03E10.1080p.WEB.H264-CAKES.mkv ~ 670.6 MiB
Solar.Opposites.S03E11.1080p.WEB.H264-CAKES.mkv ~ 478.6 MiB
MediaInfo
General
Unique ID : 91841960819984514833444148902388772408 (0x45181E459879F577BDCB16268BE72E38)
Complete name : Solar.Opposites.S03E11.1080p.WEB.H264-CAKES.mkv
Format : Matroska
Format version : Version 4
File size : 479 MiB
Duration : 22 min 57 s
Overall bit rate : 2 916 kb/s
Movie name : Solar.Opposites.S03E11.1080p.WEB.H264-CAKES
Writing application : mkvmerge v67.0.0 (‘Under Stars’) 64-bit
Writing library : libebml v1.4.2 + libmatroska v1.6.4

Video
ID : 1
Format : AVC
Format/Info : Advanced Video Codec
Format profile : [email protected]
Format settings : CABAC / 4 Ref Frames
Format settings, CABAC : Yes
Format settings, Reference frames : 4 frames
Codec ID : V_MPEG4/ISO/AVC
Duration : 22 min 57 s
Bit rate : 2 602 kb/s
Width : 1 920 pixels
Height : 1 080 pixels
Display aspect ratio : 16:9
Frame rate mode : Constant
Frame rate : 23.976 (24000/1001) FPS
Color space : YUV
Chroma subsampling : 4:2:0
Bit depth : 8 bits
Scan type : Progressive
Bits/(Pixel*Frame) : 0.052
Stream size : 427 MiB (89%)
Default : Yes
Forced : No

Audio
ID : 2
Format : E-AC-3
Format/Info : Enhanced AC-3
Commercial name : Dolby Digital Plus
Codec ID : A_EAC3
Duration : 22 min 57 s
Bit rate mode : Constant
Bit rate : 256 kb/s
Channel(s) : 6 channels
Channel layout : L R C LFE Ls Rs
Sampling rate : 48.0 kHz
Frame rate : 31.250 FPS (1536 SPF)
Compression mode : Lossy
Stream size : 42.0 MiB (9%)
Language : English
Service kind : Complete Main
Default : Yes
Forced : No

Text #1
ID : 3
Format : UTF-8
Codec ID : S_TEXT/UTF8
Codec ID/Info : UTF-8 Plain Text
Title : English [SDH] Language : English
Default : No
Forced : No

Text #2
ID : 4
Format : UTF-8
Codec ID : S_TEXT/UTF8
Codec ID/Info : UTF-8 Plain Text
Title : Spanish [SDH] Language : Spanish
Default : No
Forced : No

Direct Link Download

Leave a Reply

Your email address will not be published.