Joe Pickett S01 1080p AMZN WEBRip DDP5 1 x264-WhiteHat

A game warden and his family navigate the changing political and socio-economic climate in a small rural town in Wyoming on the verge of economic collapse. Surrounded by rich history and vast wildlife, the township hides decades of schemes and secrets that are yet to be uncovered.
Download

Joe Pickett S01 1080p AMZN WEBRip DDP5 1 x264-WhiteHat – 28.7 GB
part01.rar | N/AxN/A | N/A | N/A at N/A
Links: RapidGatorMultiUP (Google Drive, Uptobox, 1fichier)
Pass: k-vyt=of39

Episode List
Joe.Pickett.S01E01.1080p.AMZN.WEB-DL.DDP5.1.H264-WhiteHat.mkv ~ 3.190 GiB
Joe.Pickett.S01E02.1080p.AMZN.WEB-DL.DDP5.1.H264-WhiteHat.mkv ~ 3.246 GiB
Joe.Pickett.S01E03.1080p.AMZN.WEB-DL.DDP5.1.H264-WhiteHat.mkv ~ 3.623 GiB
Joe.Pickett.S01E04.1080p.AMZN.WEB-DL.DDP5.1.H264-WhiteHat.mkv ~ 3.201 GiB
Joe.Pickett.S01E05.1080p.AMZN.WEB-DL.DDP5.1.H264-WhiteHat.mkv ~ 2.779 GiB
Joe.Pickett.S01E06.1080p.AMZN.WEB-DL.DDP5.1.H264-WhiteHat.mkv ~ 2.342 GiB
Joe.Pickett.S01E07.1080p.AMZN.WEB-DL.DDP5.1.H264-WhiteHat.mkv ~ 2.785 GiB
Joe.Pickett.S01E08.1080p.AMZN.WEB-DL.DDP5.1.H264-WhiteHat.mkv ~ 2.927 GiB
Joe.Pickett.S01E09.1080p.AMZN.WEB-DL.DDP5.1.H264-WhiteHat.mkv ~ 2.028 GiB
Joe.Pickett.S01E10.1080p.AMZN.WEB-DL.DDP5.1.H264-WhiteHat.mkv ~ 2.581 GiB
MediaInfo
General
Unique ID : 112031992558922503952457024643847544346 (0x544893B10519C1572622A6E27061DE1A)
Complete name : Joe.Pickett.S01E10.1080p.AMZN.WEB-DL.DDP5.1.H264-WhiteHat.mkv
Format : Matroska
Format version : Version 4
File size : 2.58 GiB
Duration : 47 min 44 s
Overall bit rate : 7 740 kb/s
Movie name : Joe.Pickett.S01E10.1080p.AMZN.WEB-DL.DDP5.1.H264-WhiteHat
Encoded date : UTC 2022-07-12 02:58:17
Writing application : mkvmerge v69.0.0 (‘Day And Age’) 64-bit
Writing library : libebml v1.4.2 + libmatroska v1.6.4

Video
ID : 1
Format : AVC
Format/Info : Advanced Video Codec
Format profile : [email protected]
Format settings : CABAC / 4 Ref Frames
Format settings, CABAC : Yes
Format settings, Reference frames : 4 frames
Codec ID : V_MPEG4/ISO/AVC
Duration : 47 min 44 s
Bit rate mode : Constant
Bit rate : 7 098 kb/s
Nominal bit rate : 10 000 kb/s
Width : 1 920 pixels
Height : 960 pixels
Display aspect ratio : 2.000
Frame rate mode : Constant
Frame rate : 24.000 FPS
Color space : YUV
Chroma subsampling : 4:2:0
Bit depth : 8 bits
Scan type : Progressive
Bits/(Pixel*Frame) : 0.160
Stream size : 2.37 GiB (92%)
Default : Yes
Forced : No
Color range : Limited
Color primaries : BT.709
Transfer characteristics : BT.709
Matrix coefficients : BT.709

Audio
ID : 2
Format : E-AC-3
Format/Info : Enhanced AC-3
Commercial name : Dolby Digital Plus
Codec ID : A_EAC3
Duration : 47 min 44 s
Bit rate mode : Constant
Bit rate : 640 kb/s
Channel(s) : 6 channels
Channel layout : L R C LFE Ls Rs
Sampling rate : 48.0 kHz
Frame rate : 31.250 FPS (1536 SPF)
Compression mode : Lossy
Stream size : 219 MiB (8%)
Language : English
Service kind : Complete Main
Default : Yes
Forced : No

Text
ID : 3
Format : UTF-8
Codec ID : S_TEXT/UTF8
Codec ID/Info : UTF-8 Plain Text
Duration : 47 min 26 s
Bit rate : 46 b/s
Count of elements : 567
Stream size : 16.1 KiB (0%)
Language : English
Default : Yes
Forced : No

Direct Link Download

Leave a Reply

Your email address will not be published.