Delicious Miss Brown S06 720p WEBRip AAC2 0 x264-KOMPOST

Kardea Brown shares down-home, Southern eats from her South Carolina kitchen. She takes generations of family recipes and makes them her own as she cooks for family and friends at her Sea Island home.
Download

Delicious Miss Brown S06 720p WEBRip AAC2 0 x264-KOMPOST – 6.34 GB
part1.rar | N/AxN/A | N/A | N/A at N/A
Links: RapidGatorMultiUP (Google Drive, Uptobox, 1fichier)
Pass: 5,mjh1a#vg

Episode List
Delicious.Miss.Brown.S06E01.720p.WEBRip.x264-KOMPOST.mkv ~ 467.3 MiB
Delicious.Miss.Brown.S06E02.720p.WEBRip.x264-KOMPOST.mkv ~ 525.4 MiB
Delicious.Miss.Brown.S06E03.720p.WEBRip.x264-KOMPOST.mkv ~ 519.3 MiB
Delicious.Miss.Brown.S06E04.720p.WEBRip.x264-KOMPOST.mkv ~ 468.0 MiB
Delicious.Miss.Brown.S06E05.720p.WEBRip.x264-KOMPOST.mkv ~ 522.5 MiB
Delicious.Miss.Brown.S06E06.720p.WEBRip.X264-KOMPOST.mkv ~ 501.3 MiB
Delicious.Miss.Brown.S06E07.720p.WEBRip.x264-KOMPOST.mkv ~ 524.5 MiB
Delicious.Miss.Brown.S06E08.720p.WEBRip.x264-KOMPOST.mkv ~ 456.0 MiB
Delicious.Miss.Brown.S06E09.720p.WEBRip.x264-KOMPOST.mkv ~ 485.6 MiB
Delicious.Miss.Brown.S06E10.720p.WEBRip.x264-KOMPOST.mkv ~ 531.2 MiB
Delicious.Miss.Brown.S06E11.720p.WEBRip.x264-KOMPOST.mkv ~ 493.2 MiB
Delicious.Miss.Brown.S06E12.720p.WEBRip.X264-KOMPOST.mkv ~ 487.8 MiB
Delicious.Miss.Brown.S06E13.720p.WEBRip.x264-KOMPOST.mkv ~ 506.9 MiB
MediaInfo
General
Unique ID : 324831758016143446434985480478373628533 (0xF460522AC53664CD9520626CA7D2CA75)
Complete name : Delicious.Miss.Brown.S06E13.720p.WEBRip.x264-KOMPOST.mkv
Format : Matroska
Format version : Version 4
File size : 507 MiB
Duration : 21 min 1 s
Overall bit rate : 3 370 kb/s
Movie name : Delicious.Miss.Brown.S06E13.720p.WEBRip.x264-KOMPOST
Encoded date : UTC 2022-04-01 10:54:56
Writing application : mkvmerge v61.0.0 (‘So’) 64-bit
Writing library : libebml v1.4.2 + libmatroska v1.6.4

Video
ID : 1
Format : AVC
Format/Info : Advanced Video Codec
Format profile : [email protected]
Format settings : CABAC / 8 Ref Frames
Format settings, CABAC : Yes
Format settings, Reference frames : 8 frames
Codec ID : V_MPEG4/ISO/AVC
Duration : 21 min 1 s
Bit rate : 3 241 kb/s
Width : 1 280 pixels
Height : 720 pixels
Display aspect ratio : 16:9
Frame rate mode : Constant
Frame rate : 23.976 (23976/1000) FPS
Color space : YUV
Chroma subsampling : 4:2:0
Bit depth : 8 bits
Scan type : Progressive
Bits/(Pixel*Frame) : 0.147
Stream size : 487 MiB (96%)
Writing library : x264 core 164 r3081 19856cc
Encoding settings : cabac=1 / ref=8 / deblock=1:2:-2 / analyse=0x3:0x133 / me=umh / subme=9 / psy=1 / psy_rd=1.00:0.00 / mixed_ref=1 / me_range=16 / chroma_me=1 / trellis=2 / 8x8dct=1 / cqm=0 / deadzone=21,11 / fast_pskip=1 / chroma_qp_offset=-2 / threads=18 / lookahead_threads=1 / sliced_threads=0 / nr=0 / decimate=1 / interlaced=0 / bluray_compat=0 / constrained_intra=0 / bframes=3 / b_pyramid=2 / b_adapt=2 / b_bias=0 / direct=3 / weightb=1 / open_gop=0 / weightp=2 / keyint=250 / keyint_min=23 / scenecut=40 / intra_refresh=0 / rc_lookahead=60 / rc=crf / mbtree=1 / crf=19.0 / qcomp=0.60 / qpmin=0 / qpmax=69 / qpstep=4 / ip_ratio=1.40 / aq=3:0.80
Language : English
Default : Yes
Forced : No
Color range : Limited
Matrix coefficients : BT.709

Audio
ID : 2
Format : AAC LC SBR
Format/Info : Advanced Audio Codec Low Complexity with Spectral Band Replication
Commercial name : HE-AAC
Format settings : Implicit
Codec ID : A_AAC-2
Duration : 21 min 1 s
Bit rate : 127 kb/s
Channel(s) : 2 channels
Channel layout : L R
Sampling rate : 48.0 kHz
Frame rate : 23.438 FPS (2048 SPF)
Compression mode : Lossy
Stream size : 19.1 MiB (4%)
Language : English
Default : Yes
Forced : No

Text
ID : 3
Format : UTF-8
Codec ID : S_TEXT/UTF8
Codec ID/Info : UTF-8 Plain Text
Duration : 20 min 59 s
Bit rate : 165 b/s
Count of elements : 437
Stream size : 25.5 KiB (0%)
Language : English
Default : No
Forced : No

Direct Link Download

Leave a Reply

Your email address will not be published.