Delicious Miss Brown S02 1080p WEBRip AAC2 0 x264-MIXED

Kardea Brown shares down-home, Southern eats from her South Carolina kitchen. She takes generations of family recipes and makes them her own as she cooks for family and friends at her Sea Island home.
Download

Delicious Miss Brown S02 1080p WEBRip AAC2 0 x264-MIXED – 12.64 GB
part1.rar | N/AxN/A | N/A | N/A at N/A
Links: RapidGatorMultiUP (Google Drive, Uptobox, 1fichier)
Pass: [email protected];nta

Episode List
Delicious.Miss.Brown.S02E00.1080p.WEB.h264-ROBOTS.mkv ~ 761.0 MiB
Delicious.Miss.Brown.S02E00.1080p.WEB.h264-ROBOTS.mkv ~ 762.4 MiB
delicious.miss.brown.s02e00.lowcountry.classics.1080p.web.h264-txb.mkv ~ 760.9 MiB
Delicious.Miss.Brown.S02E00.1080p.WEB.h264-ROBOTS.mkv ~ 761.0 MiB
Delicious.Miss.Brown.S02E01.1080p.WEB.x264-CAFFEiNE.mkv ~ 760.2 MiB
Delicious.Miss.Brown.S02E02.1080p.WEB.x264-CAFFEiNE.mkv ~ 761.1 MiB
delicious.miss.brown.s02e03.fancy.for.less.1080p.web.x264-robots.mkv ~ 761.5 MiB
Delicious.Miss.Brown.S02E04.1080p.WEB.x264-CAFFEiNE.mkv ~ 761.4 MiB
Delicious.Miss.Brown.S02E05.1080p.WEB.x264-ROBOTS.mkv ~ 762.3 MiB
Delicious.Miss.Brown.S02E06.1080p.WEB.x264-ESPRESSO.mkv ~ 760.8 MiB
Delicious.Miss.Brown.S02E07.1080p.WEB.x264-ESPRESSO.mkv ~ 760.5 MiB
Delicious.Miss.Brown.S02E08.1080p.WEB.x264-ROBOTS.mkv ~ 760.5 MiB
Delicious.Miss.Brown.S02E09.1080p.WEB.x264-ROBOTS.mkv ~ 760.8 MiB
Delicious.Miss.Brown.S02E10.1080p.WEB.x264-ROBOTS.mkv ~ 761.2 MiB
Delicious.Miss.Brown.S02E11.1080p.WEB.x264-ROBOTS.mkv ~ 762.5 MiB
Delicious.Miss.Brown.S02E12.1080p.WEB.x264-ROBOTS.mkv ~ 760.1 MiB
Delicious.Miss.Brown.S02E13.1080p.WEB.x264-ROBOTS.mkv ~ 760.0 MiB
MediaInfo
General
Unique ID : 168292484008856197715177274367263728514 (0x7E9BF4146F1448BFBE86146475F56382)
Complete name : Delicious.Miss.Brown.S02E13.1080p.WEB.x264-ROBOTS.mkv
Format : Matroska
Format version : Version 4
File size : 760 MiB
Duration : 21 min 0 s
Overall bit rate : 5 057 kb/s
Movie name : Delicious.Miss.Brown.S02E13.1080p.WEB.x264-ROBOTS
Encoded date : UTC 2020-03-27 18:05:35
Writing application : mkvmerge v43.0.0 (‘The Quartermaster’) 64-bit
Writing library : libebml v1.3.10 + libmatroska v1.5.2

Video
ID : 2
Format : AVC
Format/Info : Advanced Video Codec
Format profile : [email protected]
Format settings : CABAC / 2 Ref Frames
Format settings, CABAC : Yes
Format settings, Reference frames : 2 frames
Codec ID : V_MPEG4/ISO/AVC
Duration : 21 min 0 s
Bit rate : 4 920 kb/s
Width : 1 920 pixels
Height : 1 080 pixels
Display aspect ratio : 16:9
Frame rate mode : Constant
Frame rate : 29.970 (30000/1001) FPS
Color space : YUV
Chroma subsampling : 4:2:0
Bit depth : 8 bits
Scan type : Progressive
Bits/(Pixel*Frame) : 0.079
Stream size : 741 MiB (97%)
Writing library : x264 core 148 r2579M 73ae2d1
Encoding settings : cabac=1 / ref=2 / deblock=1:0:0 / analyse=0x3:0x113 / me=hex / subme=2 / psy=1 / psy_rd=1.00:0.00 / mixed_ref=0 / me_range=16 / chroma_me=1 / trellis=0 / 8x8dct=1 / cqm=0 / deadzone=21,11 / fast_pskip=1 / chroma_qp_offset=0 / threads=1 / lookahead_threads=1 / sliced_threads=0 / nr=250 / decimate=1 / interlaced=0 / bluray_compat=0 / stitchable=1 / constrained_intra=0 / bframes=0 / weightp=1 / keyint=250 / keyint_min=25 / scenecut=40 / intra_refresh=0 / rc_lookahead=10 / rc=2pass / mbtree=1 / bitrate=4920 / ratetol=1.0 / qcomp=0.60 / qpmin=5 / qpmax=69 / qpstep=4 / cplxblur=20.0 / qblur=0.5 / ip_ratio=1.40 / aq=1:1.00
Default : Yes
Forced : No

Audio
ID : 1
Format : AAC LC SBR
Format/Info : Advanced Audio Codec Low Complexity with Spectral Band Replication
Commercial name : HE-AAC
Format settings : Implicit
Codec ID : A_AAC-2
Duration : 21 min 0 s
Bit rate : 127 kb/s
Channel(s) : 2 channels
Channel layout : L R
Sampling rate : 48.0 kHz
Frame rate : 23.438 FPS (2048 SPF)
Compression mode : Lossy
Delay relative to video : -33 ms
Stream size : 19.1 MiB (3%)
Default : Yes
Forced : No

Text
ID : 3
Format : UTF-8
Codec ID : S_TEXT/UTF8
Codec ID/Info : UTF-8 Plain Text
Duration : 20 min 56 s
Bit rate : 155 b/s
Count of elements : 511
Stream size : 23.8 KiB (0%)
Language : English
Default : No
Forced : No

Direct Link Download

Leave a Reply

Your email address will not be published.