Celebrity Gogglebox S01 1080p ALL4 WEBRip AAC2 0 x264-TEiLiFiS

A rolling cast of famous faces, some of Britain’s best loved personalities, turn their hand to being the country’s most opinionated viewers, sharing their opinions on what they have been watching during the week.
Download

Celebrity Gogglebox S01 1080p ALL4 WEBRip AAC2 0 x264-TEiLiFiS – 9.81 GB
part1.rar | N/AxN/A | N/A | N/A at N/A
Links: RapidGatorMultiUP (Google Drive, Uptobox, 1fichier)
Pass: 0m,je9wdw,

Episode List
Celebrity.Gogglebox.S01E01.1080p.ALL4.WEB-DL.AAC2.0.H.264-TEiLiFiS.mkv ~ 1.670 GiB
Celebrity.Gogglebox.S01E02.1080p.ALL4.WEB-DL.AAC2.0.H.264-TEiLiFiS.mkv ~ 1.669 GiB
Celebrity.Gogglebox.S01E03.1080p.ALL4.WEB-DL.AAC2.0.H.264-TEiLiFiS.mkv ~ 1.500 GiB
Celebrity.Gogglebox.S01E04.1080p.ALL4.WEB-DL.AAC2.0.H.264-TEiLiFiS.mkv ~ 1.650 GiB
Celebrity.Gogglebox.S01E05.1080p.ALL4.WEB-DL.AAC2.0.H.264-TEiLiFiS.mkv ~ 1.651 GiB
Celebrity.Gogglebox.S01E06.1080p.ALL4.WEB-DL.AAC2.0.H.264-TEiLiFiS.mkv ~ 1.667 GiB
MediaInfo
General
Unique ID : 184644467152509798638503138276738469055 (0x8AE93B18081C73F2A1B977BD90DE0CBF)
Complete name : Celebrity.Gogglebox.S01E06.1080p.ALL4.WEB-DL.AAC2.0.H.264-TEiLiFiS.mkv
Format : Matroska
Format version : Version 4
File size : 1.67 GiB
Duration : 46 min 57 s
Overall bit rate mode : Variable
Overall bit rate : 5 083 kb/s
Movie name : Celebrity.Gogglebox.S01E06.1080p.ALL4.WEB-DL.AAC2.0.H.264-TEiLiFiS
Track name/Position : 6
Track name/Total : 6
Description : A rolling cast of famous faces, some of Britain’s favourite personalities, hit the sofa as they watch the week’s big shows, sharing their sharp, insightful and funny points of view
Released date : 2019-07-19
Encoded date : UTC 2022-07-12 08:37:18
Writing application : mkvmerge v67.0.0 (‘Under Stars’) 64-bit
Writing library : libebml v1.4.2 + libmatroska v1.6.4
Comment : Brought to you by -TEiLiFiS-
Attachments : Thumbnail
IMDB : tt10561700
SYNOPSIS : From The Silence of the Lambs to The �100k Drop, what do Nicole Appleton, Mel Blatt, Chris Eubank Sr, Chris Eubank Jr, Loyle Carner, Example, Professor Green and other celebs think of our top telly?
TMDB : tv/91291
TVDB : 365180

Video
ID : 1
Format : AVC
Format/Info : Advanced Video Codec
Format profile : [email protected]
Format settings : CABAC / 4 Ref Frames
Format settings, CABAC : Yes
Format settings, Reference frames : 4 frames
Codec ID : V_MPEG4/ISO/AVC
Duration : 46 min 57 s
Bit rate mode : Variable
Bit rate : 5 000 kb/s
Maximum bit rate : 6 250 kb/s
Width : 1 920 pixels
Height : 1 080 pixels
Display aspect ratio : 16:9
Frame rate mode : Constant
Frame rate : 25.000 FPS
Color space : YUV
Chroma subsampling : 4:2:0
Bit depth : 8 bits
Scan type : Progressive
Bits/(Pixel*Frame) : 0.096
Stream size : 1.62 GiB (97%)
Writing library : x264 core 152 r2851 ba24899
Encoding settings : cabac=1 / ref=3 / deblock=1:0:0 / analyse=0x3:0x113 / me=hex / subme=7 / psy=1 / psy_rd=1.00:0.00 / mixed_ref=1 / me_range=16 / chroma_me=1 / trellis=1 / 8x8dct=1 / cqm=0 / deadzone=21,11 / fast_pskip=1 / chroma_qp_offset=-2 / threads=12 / lookahead_threads=2 / sliced_threads=0 / nr=0 / decimate=1 / interlaced=0 / bluray_compat=0 / constrained_intra=0 / bframes=3 / b_pyramid=2 / b_adapt=2 / b_bias=0 / direct=1 / weightb=1 / open_gop=0 / weightp=2 / keyint=50 / keyint_min=5 / scenecut=0 / intra_refresh=0 / rc_lookahead=40 / rc=abr / mbtree=1 / bitrate=5000 / ratetol=1.0 / qcomp=0.60 / qpmin=0 / qpmax=69 / qpstep=4 / vbv_maxrate=6250 / vbv_bufsize=10000 / nal_hrd=vbr / filler=0 / ip_ratio=1.40 / aq=1:1.00
Language : English
Default : Yes
Forced : No

Audio
ID : 2
Format : AAC LC
Format/Info : Advanced Audio Codec Low Complexity
Codec ID : A_AAC-2
Duration : 46 min 57 s
Bit rate : 128 kb/s
Channel(s) : 2 channels
Channel layout : L R
Sampling rate : 48.0 kHz
Frame rate : 46.875 FPS (1024 SPF)
Compression mode : Lossy
Stream size : 43.0 MiB (3%)
Language : English
Default : Yes
Forced : No

Text #1
ID : 3
Format : UTF-8
Codec ID : S_TEXT/UTF8
Codec ID/Info : UTF-8 Plain Text
Duration : 46 min 54 s
Bit rate : 103 b/s
Count of elements : 1015
Stream size : 35.5 KiB (0%)
Title : English srt plain
Language : English
Default : No
Forced : No

Text #2
ID : 4
Format : UTF-8
Codec ID : S_TEXT/UTF8
Codec ID/Info : UTF-8 Plain Text
Duration : 46 min 54 s
Bit rate : 235 b/s
Count of elements : 1015
Stream size : 80.8 KiB (0%)
Title : English srt
Language : English
Default : No
Forced : No

Text #3
ID : 5
Format : S_TEXT/WEBVTT
Codec ID : S_TEXT/WEBVTT
Duration : 46 min 54 s
Bit rate : 276 b/s
Count of elements : 1015
Stream size : 94.9 KiB (0%)
Title : English vtt
Language : English
Default : No
Forced : No

Menu
00:00:00.000 : Part 1
00:11:56.000 : Part 2
00:25:07.000 : Part 3
00:35:26.000 : Part 4

Direct Link Download

Leave a Reply

Your email address will not be published.