Breeders S03 1080p AMZN WEBRip DDP5 1 x264-NTb

Exposing the parental-paradox that it is possible, in the very same moment, to love your child to the horizon of the universe, while being apoplectically angry enough to want to send them there.
Download

Breeders S03 1080p AMZN WEBRip DDP5 1 x264-NTb – 17.69 GB
part1.rar | N/AxN/A | N/A | N/A at N/A
Links: RapidGatorMultiUP (Google Drive, Uptobox, 1fichier)
Pass: 58n-,louyj

Episode List
Breeders.S03E01.1080p.AMZN.WEB-DL.DDP5.1.H.264-NTb.mkv ~ 1.725 GiB
Breeders.S03E02.1080p.AMZN.WEB-DL.DDP5.1.H.264-NTb.mkv ~ 1.779 GiB
Breeders.S03E03.1080p.AMZN.WEB-DL.DDP5.1.H.264-NTb.mkv ~ 1.781 GiB
Breeders.S03E04.1080p.AMZN.WEB-DL.DDP5.1.H.264-NTb.mkv ~ 1.746 GiB
Breeders.S03E05.1080p.AMZN.WEB-DL.DDP5.1.H.264-NTb.mkv ~ 1.910 GiB
Breeders.S03E06.1080p.AMZN.WEB-DL.DDP5.1.H.264-NTb.mkv ~ 1.750 GiB
Breeders.S03E07.1080p.AMZN.WEB-DL.DDP5.1.H.264-NTb.mkv ~ 1.543 GiB
Breeders.S03E08.1080p.AMZN.WEB-DL.DDP5.1.H.264-NTb.mkv ~ 2.101 GiB
Breeders.S03E09.1080p.AMZN.WEB-DL.DDP5.1.H.264-NTb.mkv ~ 1.631 GiB
Breeders.S03E10.1080p.AMZN.WEB-DL.DDP5.1.H.264-NTb.mkv ~ 1.722 GiB
MediaInfo
General
Unique ID : 262621320713878860972143259552562842482 (0xC59306CC9E7773941E4673B79C608B72)
Complete name : Breeders.S03E10.1080p.AMZN.WEB-DL.DDP5.1.H.264-NTb.mkv
Format : Matroska
Format version : Version 4
File size : 1.72 GiB
Duration : 24 min 53 s
Overall bit rate : 9 905 kb/s
Movie name : Breeders.S03E10.1080p.AMZN.WEB-DL.DDP5.1.H.264-NTb
Writing application : mkvmerge v68.0.0 (‘The Curtain’) 64-bit
Writing library : libebml v1.4.2 + libmatroska v1.6.4

Video
ID : 1
Format : AVC
Format/Info : Advanced Video Codec
Format profile : [email protected]
Format settings : CABAC / 4 Ref Frames
Format settings, CABAC : Yes
Format settings, Reference frames : 4 frames
Codec ID : V_MPEG4/ISO/AVC
Duration : 24 min 53 s
Bit rate mode : Constant
Bit rate : 9 262 kb/s
Nominal bit rate : 10 000 kb/s
Width : 1 920 pixels
Height : 1 080 pixels
Display aspect ratio : 16:9
Frame rate mode : Constant
Frame rate : 23.976 (24000/1001) FPS
Color space : YUV
Chroma subsampling : 4:2:0
Bit depth : 8 bits
Scan type : Progressive
Bits/(Pixel*Frame) : 0.186
Stream size : 1.61 GiB (94%)
Default : Yes
Forced : No
Color range : Limited
Color primaries : BT.709
Transfer characteristics : BT.709
Matrix coefficients : BT.709

Audio
ID : 2
Format : E-AC-3
Format/Info : Enhanced AC-3
Commercial name : Dolby Digital Plus
Codec ID : A_EAC3
Duration : 24 min 53 s
Bit rate mode : Constant
Bit rate : 640 kb/s
Channel(s) : 6 channels
Channel layout : L R C LFE Ls Rs
Sampling rate : 48.0 kHz
Frame rate : 31.250 FPS (1536 SPF)
Compression mode : Lossy
Delay relative to video : 16 ms
Stream size : 114 MiB (6%)
Language : English
Service kind : Complete Main
Default : Yes
Forced : No

Text #1
ID : 3
Format : UTF-8
Codec ID : S_TEXT/UTF8
Codec ID/Info : UTF-8 Plain Text
Duration : 23 min 37 s
Bit rate : 93 b/s
Count of elements : 486
Stream size : 16.2 KiB (0%)
Language : English
Default : No
Forced : No

Text #2
ID : 4
Format : UTF-8
Codec ID : S_TEXT/UTF8
Codec ID/Info : UTF-8 Plain Text
Duration : 23 min 59 s
Bit rate : 100 b/s
Count of elements : 532
Stream size : 17.6 KiB (0%)
Title : SDH
Language : English
Default : No
Forced : No

Direct Link Download

Leave a Reply

Your email address will not be published.