Gabbys Dollhouse S04 1080p NF WEBRip DDP5 1 x264-LAZY

This colorful series leads preschoolers room to room through a fantastical dollhouse of delightful mini-worlds and irresistible kitty characters.
Download

Gabbys Dollhouse S04 1080p NF WEBRip DDP5 1 x264-LAZY – 5.49 GB
part1.rar | N/AxN/A | N/A | N/A at N/A
Links: RapidGatorMultiUP (Google Drive, Uptobox, 1fichier)
Pass: e_6rrldp:8

Episode List
Gabbys.Dollhouse.S04E01.1080p.NF.WEB-DL.DDP5.1.H.264-LAZY.mkv ~ 646.1 MiB
Gabbys.Dollhouse.S04E02.1080p.NF.WEB-DL.DDP5.1.x264-LAZY.mkv ~ 739.5 MiB
Gabbys.Dollhouse.S04E03.1080p.NF.WEB-DL.DDP5.1.H.264-LAZY.mkv ~ 690.1 MiB
Gabbys.Dollhouse.S04E04.1080p.NF.WEB-DL.DDP5.1.H.264-LAZY.mkv ~ 694.4 MiB
Gabbys.Dollhouse.S04E05.1080p.NF.WEB-DL.DDP5.1.x264-LAZY.mkv ~ 664.4 MiB
Gabbys.Dollhouse.S04E06.1080p.NF.WEB-DL.DDP5.1.x264-LAZY.mkv ~ 783.9 MiB
Gabbys.Dollhouse.S04E07.1080p.NF.WEB-DL.DDP5.1.x264-LAZY.mkv ~ 707.6 MiB
Gabbys.Dollhouse.S04E08.1080p.NF.WEB-DL.DDP5.1.x264-LAZY.mkv ~ 699.0 MiB
MediaInfo
General
Unique ID : 238552073062119308761992140246207448833 (0xB3777544C526764ECF9B4FDAD6544701)
Complete name : Gabbys.Dollhouse.S04E08.1080p.NF.WEB-DL.DDP5.1.x264-LAZY.mkv
Format : Matroska
Format version : Version 4
File size : 699 MiB
Duration : 24 min 8 s
Overall bit rate mode : Variable
Overall bit rate : 4 048 kb/s
Movie name : Gabbys.Dollhouse.S04E08.1080p.NF.WEB-DL.DDP5.1.x264-LAZY
Encoded date : UTC 2022-07-11 21:14:41
Writing application : mkvmerge v69.0.0 (‘Day And Age’) 64-bit
Writing library : libebml v1.4.2 + libmatroska v1.6.4

Video
ID : 1
Format : AVC
Format/Info : Advanced Video Codec
Format profile : [email protected]
Format settings : CABAC / 3 Ref Frames
Format settings, CABAC : Yes
Format settings, Reference frames : 3 frames
Codec ID : V_MPEG4/ISO/AVC
Duration : 24 min 8 s
Bit rate mode : Variable
Bit rate : 3 402 kb/s
Nominal bit rate : 4 020 kb/s
Maximum bit rate : 6 030 kb/s
Width : 1 920 pixels
Height : 1 080 pixels
Display aspect ratio : 16:9
Frame rate mode : Constant
Frame rate : 23.976 (24000/1001) FPS
Color space : YUV
Chroma subsampling : 4:2:0
Bit depth : 8 bits
Scan type : Progressive
Bits/(Pixel*Frame) : 0.068
Stream size : 587 MiB (84%)
Writing library : x264 core 148 r2727 7d026e8
Encoding settings : cabac=1 / ref=3 / deblock=1:0:0 / analyse=0x1:0x111 / me=umh / subme=10 / psy=1 / psy_rd=1.00:0.00 / mixed_ref=1 / me_range=24 / chroma_me=1 / trellis=2 / 8x8dct=0 / cqm=0 / deadzone=21,11 / fast_pskip=1 / chroma_qp_offset=-2 / threads=6 / lookahead_threads=1 / sliced_threads=0 / nr=0 / decimate=1 / interlaced=0 / bluray_compat=0 / stitchable=1 / constrained_intra=0 / bframes=2 / b_pyramid=0 / b_adapt=2 / b_bias=0 / direct=3 / weightb=1 / open_gop=0 / weightp=2 / keyint=250 / keyint_min=23 / scenecut=0 / intra_refresh=0 / rc_lookahead=48 / rc=2pass / mbtree=1 / bitrate=4020 / ratetol=1.0 / qcomp=0.50 / qpmin=6 / qpmax=51 / qpstep=4 / cplxblur=20.0 / qblur=0.5 / vbv_maxrate=6030 / vbv_bufsize=8040 / nal_hrd=vbr / filler=0 / ip_ratio=1.40 / aq=1:1.00
Default : Yes
Forced : No

Audio
ID : 2
Format : E-AC-3
Format/Info : Enhanced AC-3
Commercial name : Dolby Digital Plus
Codec ID : A_EAC3
Duration : 24 min 8 s
Bit rate mode : Constant
Bit rate : 640 kb/s
Channel(s) : 6 channels
Channel layout : L R C LFE Ls Rs
Sampling rate : 48.0 kHz
Frame rate : 31.250 FPS (1536 SPF)
Compression mode : Lossy
Stream size : 111 MiB (16%)
Language : English
Service kind : Complete Main
Default : Yes
Forced : No

Text #1
ID : 3
Format : UTF-8
Codec ID : S_TEXT/UTF8
Codec ID/Info : UTF-8 Plain Text
Duration : 23 min 3 s
Bit rate : 54 b/s
Count of elements : 380
Stream size : 9.20 KiB (0%)
Language : Hungarian
Default : No
Forced : No

Text #2
ID : 4
Format : UTF-8
Codec ID : S_TEXT/UTF8
Codec ID/Info : UTF-8 Plain Text
Duration : 23 min 1 s
Bit rate : 103 b/s
Count of elements : 377
Stream size : 17.4 KiB (0%)
Language : Arabic
Default : No
Forced : No

Text #3
ID : 5
Format : UTF-8
Codec ID : S_TEXT/UTF8
Codec ID/Info : UTF-8 Plain Text
Duration : 23 min 2 s
Bit rate : 58 b/s
Count of elements : 408
Stream size : 9.83 KiB (0%)
Language : Czech
Default : No
Forced : No

Text #4
ID : 6
Format : UTF-8
Codec ID : S_TEXT/UTF8
Codec ID/Info : UTF-8 Plain Text
Duration : 22 min 36 s
Bit rate : 61 b/s
Count of elements : 366
Stream size : 10.1 KiB (0%)
Language : Danish
Default : No
Forced : No

Text #5
ID : 7
Format : UTF-8
Codec ID : S_TEXT/UTF8
Codec ID/Info : UTF-8 Plain Text
Duration : 23 min 1 s
Bit rate : 60 b/s
Count of elements : 362
Stream size : 10.2 KiB (0%)
Language : German
Default : No
Forced : No

Text #6
ID : 8
Format : UTF-8
Codec ID : S_TEXT/UTF8
Codec ID/Info : UTF-8 Plain Text
Duration : 23 min 2 s
Bit rate : 103 b/s
Count of elements : 407
Stream size : 17.5 KiB (0%)
Language : Greek
Default : No
Forced : No

Text #7
ID : 9
Format : UTF-8
Codec ID : S_TEXT/UTF8
Codec ID/Info : UTF-8 Plain Text
Duration : 22 min 28 s
Bit rate : 81 b/s
Count of elements : 473
Stream size : 13.4 KiB (0%)
Title : SDH
Language : English
Default : No
Forced : No

Text #8
ID : 10
Format : UTF-8
Codec ID : S_TEXT/UTF8
Codec ID/Info : UTF-8 Plain Text
Duration : 23 min 1 s
Bit rate : 65 b/s
Count of elements : 408
Stream size : 11.1 KiB (0%)
Title : Latin American
Language : Spanish
Default : No
Forced : No

Text #9
ID : 11
Format : UTF-8
Codec ID : S_TEXT/UTF8
Codec ID/Info : UTF-8 Plain Text
Duration : 23 min 1 s
Bit rate : 63 b/s
Count of elements : 402
Stream size : 10.7 KiB (0%)
Title : European
Language : Spanish
Default : No
Forced : No

Text #10
ID : 12
Format : UTF-8
Codec ID : S_TEXT/UTF8
Codec ID/Info : UTF-8 Plain Text
Duration : 22 min 36 s
Bit rate : 62 b/s
Count of elements : 367
Stream size : 10.4 KiB (0%)
Language : Finnish
Default : No
Forced : No

Text #11
ID : 13
Format : UTF-8
Codec ID : S_TEXT/UTF8
Codec ID/Info : UTF-8 Plain Text
Duration : 23 min 1 s
Bit rate : 70 b/s
Count of elements : 400
Stream size : 11.9 KiB (0%)
Language : French
Default : No
Forced : No

Text #12
ID : 14
Format : UTF-8
Codec ID : S_TEXT/UTF8
Codec ID/Info : UTF-8 Plain Text
Duration : 23 min 1 s
Bit rate : 100 b/s
Count of elements : 405
Stream size : 17.0 KiB (0%)
Language : Hebrew
Default : No
Forced : No

Text #13
ID : 15
Format : UTF-8
Codec ID : S_TEXT/UTF8
Codec ID/Info : UTF-8 Plain Text
Duration : 23 min 2 s
Bit rate : 53 b/s
Count of elements : 408
Stream size : 9.04 KiB (0%)
Language : Croatian
Default : No
Forced : No

Text #14
ID : 16
Format : UTF-8
Codec ID : S_TEXT/UTF8
Codec ID/Info : UTF-8 Plain Text
Duration : 23 min 3 s
Bit rate : 58 b/s
Count of elements : 409
Stream size : 9.94 KiB (0%)
Language : Indonesian
Default : No
Forced : No

Text #15
ID : 17
Format : UTF-8
Codec ID : S_TEXT/UTF8
Codec ID/Info : UTF-8 Plain Text
Duration : 23 min 0 s
Bit rate : 60 b/s
Count of elements : 392
Stream size : 10.2 KiB (0%)
Language : Italian
Default : No
Forced : No

Text #16
ID : 18
Format : UTF-8
Codec ID : S_TEXT/UTF8
Codec ID/Info : UTF-8 Plain Text
Duration : 23 min 1 s
Bit rate : 80 b/s
Count of elements : 395
Stream size : 13.5 KiB (0%)
Language : Japanese
Default : No
Forced : No

Text #17
ID : 19
Format : UTF-8
Codec ID : S_TEXT/UTF8
Codec ID/Info : UTF-8 Plain Text
Duration : 23 min 1 s
Bit rate : 82 b/s
Count of elements : 409
Stream size : 13.9 KiB (0%)
Language : Korean
Default : No
Forced : No

Text #18
ID : 20
Format : UTF-8
Codec ID : S_TEXT/UTF8
Codec ID/Info : UTF-8 Plain Text
Duration : 22 min 36 s
Bit rate : 63 b/s
Count of elements : 367
Stream size : 10.5 KiB (0%)
Language : Norwegian Bokmal
Default : No
Forced : No

Text #19
ID : 21
Format : UTF-8
Codec ID : S_TEXT/UTF8
Codec ID/Info : UTF-8 Plain Text
Duration : 23 min 1 s
Bit rate : 52 b/s
Count of elements : 377
Stream size : 8.88 KiB (0%)
Language : Dutch
Default : No
Forced : No

Text #20
ID : 22
Format : UTF-8
Codec ID : S_TEXT/UTF8
Codec ID/Info : UTF-8 Plain Text
Duration : 23 min 2 s
Bit rate : 50 b/s
Count of elements : 405
Stream size : 8.54 KiB (0%)
Language : Polish
Default : No
Forced : No

Text #21
ID : 23
Format : UTF-8
Codec ID : S_TEXT/UTF8
Codec ID/Info : UTF-8 Plain Text
Duration : 23 min 1 s
Bit rate : 62 b/s
Count of elements : 397
Stream size : 10.5 KiB (0%)
Title : Brazilian
Language : Portuguese
Default : No
Forced : No

Text #22
ID : 24
Format : UTF-8
Codec ID : S_TEXT/UTF8
Codec ID/Info : UTF-8 Plain Text
Duration : 23 min 2 s
Bit rate : 54 b/s
Count of elements : 404
Stream size : 9.26 KiB (0%)
Title : European
Language : Portuguese
Default : No
Forced : No

Text #23
ID : 25
Format : UTF-8
Codec ID : S_TEXT/UTF8
Codec ID/Info : UTF-8 Plain Text
Duration : 23 min 1 s
Bit rate : 63 b/s
Count of elements : 408
Stream size : 10.8 KiB (0%)
Language : Romanian
Default : No
Forced : No

Text #24
ID : 26
Format : UTF-8
Codec ID : S_TEXT/UTF8
Codec ID/Info : UTF-8 Plain Text
Duration : 23 min 1 s
Bit rate : 96 b/s
Count of elements : 405
Stream size : 16.3 KiB (0%)
Language : Russian
Default : No
Forced : No

Text #25
ID : 27
Format : UTF-8
Codec ID : S_TEXT/UTF8
Codec ID/Info : UTF-8 Plain Text
Duration : 22 min 36 s
Bit rate : 68 b/s
Count of elements : 365
Stream size : 11.4 KiB (0%)
Language : Swedish
Default : No
Forced : No

Text #26
ID : 28
Format : UTF-8
Codec ID : S_TEXT/UTF8
Codec ID/Info : UTF-8 Plain Text
Duration : 23 min 3 s
Bit rate : 167 b/s
Count of elements : 409
Stream size : 28.2 KiB (0%)
Language : Thai
Default : No
Forced : No

Text #27
ID : 29
Format : UTF-8
Codec ID : S_TEXT/UTF8
Codec ID/Info : UTF-8 Plain Text
Duration : 23 min 1 s
Bit rate : 64 b/s
Count of elements : 406
Stream size : 10.8 KiB (0%)
Language : Turkish
Default : No
Forced : No

Text #28
ID : 30
Format : UTF-8
Codec ID : S_TEXT/UTF8
Codec ID/Info : UTF-8 Plain Text
Duration : 23 min 3 s
Bit rate : 80 b/s
Count of elements : 409
Stream size : 13.5 KiB (0%)
Language : Vietnamese
Default : No
Forced : No

Text #29
ID : 31
Format : UTF-8
Codec ID : S_TEXT/UTF8
Codec ID/Info : UTF-8 Plain Text
Duration : 23 min 1 s
Bit rate : 69 b/s
Count of elements : 409
Stream size : 11.7 KiB (0%)
Title : Simplified
Language : Chinese
Default : No
Forced : No

Text #30
ID : 32
Format : UTF-8
Codec ID : S_TEXT/UTF8
Codec ID/Info : UTF-8 Plain Text
Duration : 23 min 1 s
Bit rate : 73 b/s
Count of elements : 409
Stream size : 12.4 KiB (0%)
Title : Traditional
Language : Chinese
Default : No
Forced : No

Menu
00:00:00.000 : Part 01
00:00:04.500 : Intro
00:00:44.250 : Part 02
00:22:41.450 : Credits

Direct Link Download

Leave a Reply

Your email address will not be published.