The Twin 2022 720p WEBRip AAC2 0 x264-EVO

Every parent’s worst nightmare is just the beginning for Rachel’s ordeal as in the aftermath of a tragic accident, she and her husband Anthony decide to move to the other side of the world to focus on their surviving twin son Elliot. What begins as a time of healing and isolation in the Finnish countryside turns into a desperate battle for the very soul of their son as an entity claiming to be his dead twin brother takes over Elliot – setting Rachel on a diabolical journey to unravel the horrible truth about her twin son.
Download

The Twin 2022 720p WEBRip AAC2 0 x264-EVO – 954.94 MB
mkv | 1280×536 | 1230 Kbps | A_AAC-2 at 128 Kbps
Links: RapidGatorMultiUP (Google Drive, Uptobox, 1fichier)
Pass: y^4n3wga3tu0s

MediaInfo
General
Unique ID : 246868298966060249434837919717585835884 (0xB9B91ADCAF0DAF8C335D0D0E2A27D76C)
Complete name : The.Twin.2022.720p.WEBRip.AAC2.0.X.264-EVO.mkv
Format : Matroska
Format version : Version 4
File size : 955 MiB
Duration : 1 h 48 min
Overall bit rate : 1 230 kb/s
Movie name : EVO
Encoded date : UTC 2022-05-06 16:44:12
Writing application : mkvmerge v67.0.0 (‘Under Stars’) 64-bit
Writing library : libebml v1.4.2 + libmatroska v1.6.4

Video
ID : 1
Format : AVC
Format/Info : Advanced Video Codec
Format profile : [email protected]
Format settings : CABAC / 4 Ref Frames
Format settings, CABAC : Yes
Format settings, Reference frames : 4 frames
Codec ID : V_MPEG4/ISO/AVC
Duration : 1 h 48 min
Bit rate : 1 100 kb/s
Width : 1 280 pixels
Height : 536 pixels
Display aspect ratio : 2.40:1
Frame rate mode : Constant
Frame rate : 23.976 (24000/1001) FPS
Color space : YUV
Chroma subsampling : 4:2:0
Bit depth : 8 bits
Scan type : Progressive
Bits/(Pixel*Frame) : 0.067
Stream size : 853 MiB (89%)
Writing library : x264 core 164 r3079 d9a19f0
Encoding settings : cabac=1 / ref=2 / deblock=1:0:0 / analyse=0x3:0x113 / me=hex / subme=6 / psy=1 / psy_rd=1.00:0.00 / mixed_ref=1 / me_range=16 / chroma_me=1 / trellis=1 / 8x8dct=1 / cqm=0 / deadzone=21,11 / fast_pskip=1 / chroma_qp_offset=-2 / threads=17 / lookahead_threads=2 / sliced_threads=0 / nr=0 / decimate=1 / interlaced=0 / bluray_compat=0 / constrained_intra=0 / bframes=3 / b_pyramid=2 / b_adapt=1 / b_bias=0 / direct=1 / weightb=1 / open_gop=0 / weightp=1 / keyint=250 / keyint_min=23 / scenecut=40 / intra_refresh=0 / rc_lookahead=30 / rc=2pass / mbtree=1 / bitrate=1100 / ratetol=1.0 / qcomp=0.60 / qpmin=0 / qpmax=69 / qpstep=4 / cplxblur=20.0 / qblur=0.5 / ip_ratio=1.40 / aq=1:1.00
Default : Yes
Forced : No
Color range : Limited
Color primaries : BT.709
Transfer characteristics : BT.709
Matrix coefficients : BT.709

Audio
ID : 2
Format : AAC LC
Format/Info : Advanced Audio Codec Low Complexity
Codec ID : A_AAC-2
Duration : 1 h 48 min
Bit rate : 129 kb/s
Channel(s) : 2 channels
Channel layout : L R
Sampling rate : 48.0 kHz
Frame rate : 46.875 FPS (1024 SPF)
Compression mode : Lossy
Delay relative to video : -21 ms
Stream size : 100 MiB (10%)
Language : English
Default : Yes
Forced : No

Direct Link Download

Leave a Reply

Your email address will not be published.