The Beta Test 2021 1080p BRRip DD5 1 x264-EVO

An engaged Hollywood agent receives a mysterious letter for an anonymous sexual encounter and becomes ensnared in a sinister world of lying, infidelity, and digital data.
Download

The Beta Test 2021 1080p BRRip DD5 1 x264-EVO – 1.69 GB
mkv | 1920×824 | 2585 Kbps | A_AC3 at 384 Kbps
Links: RapidGatorMultiUP (Google Drive, Uptobox, 1fichier)
Pass: gmeq2%f72pj9c

MediaInfo
General
Unique ID : 108185664563002280959905709708066482888 (0x5163CD1477389B18F406D1F75388EAC8)
Complete name : The.Beta.Test.2021.1080p.BRRip.DD5.1.X.264-EVO.mkv
Format : Matroska
Format version : Version 4
File size : 1.69 GiB
Duration : 1 h 33 min
Overall bit rate : 2 586 kb/s
Movie name : EVO
Encoded date : UTC 2022-05-06 17:59:02
Writing application : mkvmerge v67.0.0 (‘Under Stars’) 64-bit
Writing library : libebml v1.4.2 + libmatroska v1.6.4

Video
ID : 1
Format : AVC
Format/Info : Advanced Video Codec
Format profile : [email protected]
Format settings : CABAC / 4 Ref Frames
Format settings, CABAC : Yes
Format settings, Reference frames : 4 frames
Codec ID : V_MPEG4/ISO/AVC
Duration : 1 h 33 min
Bit rate : 2 200 kb/s
Width : 1 920 pixels
Height : 824 pixels
Display aspect ratio : 2.35:1
Frame rate mode : Constant
Frame rate : 23.976 (24000/1001) FPS
Color space : YUV
Chroma subsampling : 4:2:0
Bit depth : 8 bits
Scan type : Progressive
Bits/(Pixel*Frame) : 0.058
Stream size : 1.43 GiB (85%)
Writing library : x264 core 164 r3079 d9a19f0
Encoding settings : cabac=1 / ref=2 / deblock=1:0:0 / analyse=0x3:0x113 / me=hex / subme=6 / psy=1 / psy_rd=1.00:0.00 / mixed_ref=1 / me_range=16 / chroma_me=1 / trellis=1 / 8x8dct=1 / cqm=0 / deadzone=21,11 / fast_pskip=1 / chroma_qp_offset=-2 / threads=24 / lookahead_threads=4 / sliced_threads=0 / nr=0 / decimate=1 / interlaced=0 / bluray_compat=0 / constrained_intra=0 / bframes=3 / b_pyramid=2 / b_adapt=1 / b_bias=0 / direct=1 / weightb=1 / open_gop=0 / weightp=1 / keyint=250 / keyint_min=23 / scenecut=40 / intra_refresh=0 / rc_lookahead=30 / rc=2pass / mbtree=1 / bitrate=2200 / ratetol=1.0 / qcomp=0.60 / qpmin=0 / qpmax=69 / qpstep=4 / cplxblur=20.0 / qblur=0.5 / ip_ratio=1.40 / aq=1:1.00
Default : Yes
Forced : No
Color range : Limited
Color primaries : BT.709
Transfer characteristics : BT.709
Matrix coefficients : BT.709

Audio
ID : 2
Format : AC-3
Format/Info : Audio Coding 3
Commercial name : Dolby Digital
Codec ID : A_AC3
Duration : 1 h 33 min
Bit rate mode : Constant
Bit rate : 384 kb/s
Channel(s) : 6 channels
Channel layout : L R C LFE Ls Rs
Sampling rate : 48.0 kHz
Frame rate : 31.250 FPS (1536 SPF)
Compression mode : Lossy
Delay relative to video : -5 ms
Stream size : 256 MiB (15%)
Language : English
Service kind : Complete Main
Default : Yes
Forced : No

Menu
00:00:00.000 : Chapter 1
00:13:12.297 : Chapter 2
00:28:30.005 : Chapter 3
00:40:30.767 : Chapter 4
00:53:06.021 : Chapter 5
01:05:18.670 : Chapter 6
01:21:12.039 : Chapter 7
01:30:00.400 : Chapter 8

Direct Link Download

Leave a Reply

Your email address will not be published.