Young Sheldon S05E18 720p AMZN WEB-DL DDP5 1 H 264-NTb

The early life of child genius Sheldon Cooper, later seen in The Big Bang Theory.
Download

Young Sheldon S05E18 720p AMZN WEB-DL DDP5 1 H 264-NTb – 631.32 MB
mkv | 1280×720 | 4801 Kbps | A_EAC3 at 640 Kbps
Links: RapidGatorMultiUP (Google Drive, Uptobox, 1fichier)
Pass: %>th8cabt2

MediaInfo
General
Unique ID : 203404143329571352695453143545654001081 (0x9906368A1F6AAB6F2B4C6D12F673BDB9)
Complete name : Young.Sheldon.S05E18.720p.AMZN.WEB-DL.DDP5.1.H.264-NTb.mkv
Format : Matroska
Format version : Version 4
File size : 631 MiB
Duration : 18 min 22 s
Overall bit rate : 4 802 kb/s
Writing application : mkvmerge v64.0.0 (‘Willows’) 64-bit
Writing library : libebml v1.4.2 + libmatroska v1.6.4

Video
ID : 1
Format : AVC
Format/Info : Advanced Video Codec
Format profile : [email protected]
Format settings : CABAC / 4 Ref Frames
Format settings, CABAC : Yes
Format settings, Reference frames : 4 frames
Codec ID : V_MPEG4/ISO/AVC
Duration : 18 min 22 s
Bit rate mode : Constant
Bit rate : 4 160 kb/s
Nominal bit rate : 6 000 kb/s
Width : 1 280 pixels
Height : 720 pixels
Display aspect ratio : 16:9
Frame rate mode : Constant
Frame rate : 23.976 (24000/1001) FPS
Color space : YUV
Chroma subsampling : 4:2:0
Bit depth : 8 bits
Scan type : Progressive
Bits/(Pixel*Frame) : 0.188
Stream size : 547 MiB (87%)
Default : Yes
Forced : No
Color range : Limited
Color primaries : BT.709
Transfer characteristics : BT.709
Matrix coefficients : BT.709

Audio
ID : 2
Format : E-AC-3
Format/Info : Enhanced AC-3
Commercial name : Dolby Digital Plus
Codec ID : A_EAC3
Duration : 18 min 22 s
Bit rate mode : Constant
Bit rate : 640 kb/s
Channel(s) : 6 channels
Channel layout : L R C LFE Ls Rs
Sampling rate : 48.0 kHz
Frame rate : 31.250 FPS (1536 SPF)
Compression mode : Lossy
Stream size : 84.1 MiB (13%)
Language : English
Service kind : Complete Main
Default : Yes
Forced : No

Text #1
ID : 3
Format : UTF-8
Codec ID : S_TEXT/UTF8
Codec ID/Info : UTF-8 Plain Text
Duration : 17 min 49 s
Bit rate : 99 b/s
Count of elements : 443
Stream size : 12.9 KiB (0%)
Language : English
Default : No
Forced : No

Text #2
ID : 4
Format : UTF-8
Codec ID : S_TEXT/UTF8
Codec ID/Info : UTF-8 Plain Text
Duration : 17 min 49 s
Bit rate : 101 b/s
Count of elements : 457
Stream size : 13.3 KiB (0%)
Title : SDH
Language : English
Default : No
Forced : No

Direct Link Download

Leave a Reply

Your email address will not be published.