The Blacklist S09E16 1080p WEB h264-GOSSIP

Raymond “Red” Reddington, one of the FBI’s most wanted fugitives, surrenders in person at FBI Headquarters in Washington, D.C. He claims that he and the FBI have the same interests: bringing down dangerous criminals and terrorists. In the last two decades, he’s made a list of criminals and terrorists that matter the most but the FBI cannot find because it does not know they exist. Reddington calls this “The Blacklist”. Reddington will co-operate, but insists that he will speak only to Elizabeth Keen, a rookie FBI profiler.
Download

The Blacklist S09E16 1080p WEB h264-GOSSIP – 3.01 GB
mkv | 1920×1080 | 10029 Kbps | A_EAC3 at 640 Kbps
Links: RapidGatorMultiUP (Google Drive, Uptobox, 1fichier)
Pass: %2i2_zxpbh

MediaInfo
General
Unique ID : 67257423979299585420897055665519180167 (0x32994F05CF6FB923B1FCBA085DB5B987)
Complete name : The.Blacklist.S09E16.1080p.WEB.h264-GOSSIP.mkv
Format : Matroska
Format version : Version 4
File size : 3.01 GiB
Duration : 42 min 58 s
Overall bit rate : 10.0 Mb/s
Encoded date : UTC 2022-04-16 07:43:28
Writing application : mkvmerge v67.0.0 (‘Under Stars’) 64-bit
Writing library : libebml v1.4.2 + libmatroska v1.6.4

Video
ID : 1
Format : AVC
Format/Info : Advanced Video Codec
Format profile : [email protected]
Format settings : CABAC / 4 Ref Frames
Format settings, CABAC : Yes
Format settings, Reference frames : 4 frames
Codec ID : V_MPEG4/ISO/AVC
Duration : 42 min 58 s
Bit rate mode : Constant
Bit rate : 9 387 kb/s
Nominal bit rate : 10 000 kb/s
Width : 1 920 pixels
Height : 1 080 pixels
Display aspect ratio : 16:9
Frame rate mode : Constant
Frame rate : 23.976 (24000/1001) FPS
Color space : YUV
Chroma subsampling : 4:2:0
Bit depth : 8 bits
Scan type : Progressive
Bits/(Pixel*Frame) : 0.189
Stream size : 2.82 GiB (94%)
Language : English
Default : Yes
Forced : No
Color range : Limited
Color primaries : BT.709
Transfer characteristics : BT.709
Matrix coefficients : BT.709

Audio
ID : 2
Format : E-AC-3
Format/Info : Enhanced AC-3
Commercial name : Dolby Digital Plus
Codec ID : A_EAC3
Duration : 42 min 58 s
Bit rate mode : Constant
Bit rate : 640 kb/s
Channel(s) : 6 channels
Channel layout : L R C LFE Ls Rs
Sampling rate : 48.0 kHz
Frame rate : 31.250 FPS (1536 SPF)
Compression mode : Lossy
Stream size : 197 MiB (6%)
Language : English
Service kind : Complete Main
Default : Yes
Forced : No

Text
ID : 3
Format : UTF-8
Codec ID : S_TEXT/UTF8
Codec ID/Info : UTF-8 Plain Text
Duration : 42 min 24 s
Bit rate : 92 b/s
Count of elements : 946
Stream size : 28.9 KiB (0%)
Title : English
Language : English
Default : No
Forced : No

Direct Link Download

Leave a Reply

Your email address will not be published.