Marvels Hero Project S01 1080p WEB h264-ASCENDANCE

This 20-episode series shares the remarkable, positive change several young heroes are making in their own communities across the country. These inspiring kids have dedicated their lives to selfless acts of bravery and kindness, and now, Marvel celebrates them as the true Super Heroes they are by welcoming them into Marvel’s Hero Project.
Download

Marvels Hero Project S01 1080p WEB h264-ASCENDANCE – 29.48 GB
part01.rar | N/AxN/A | N/A | N/A at N/A
Links: RapidGatorMultiUP (Google Drive, Uptobox, 1fichier)
Pass: kwt-6;hcf7

Episode List
Marvels.Hero.Project.S01E01.1080p.WEB.h264-ASCENDANCE.mkv ~ 1.486 GiB
Marvels.Hero.Project.S01E02.1080p.WEB.h264-ASCENDANCE.mkv ~ 1.613 GiB
Marvels.Hero.Project.S01E03.1080p.WEB.h264-ASCENDANCE.mkv ~ 1.520 GiB
Marvels.Hero.Project.S01E04.1080p.WEB.h264-ASCENDANCE.mkv ~ 1.582 GiB
Marvels.Hero.Project.S01E05.1080p.WEB.h264-ASCENDANCE.mkv ~ 1.596 GiB
Marvels.Hero.Project.S01E06.1080p.WEB.h264-ASCENDANCE.mkv ~ 1.510 GiB
Marvels.Hero.Project.S01E07.1080p.WEB.h264-ASCENDANCE.mkv ~ 1.511 GiB
Marvels.Hero.Project.S01E08.1080p.WEB.h264-ASCENDANCE.mkv ~ 1.374 GiB
Marvels.Hero.Project.S01E09.1080p.WEB.h264-ASCENDANCE.mkv ~ 1.324 GiB
Marvels.Hero.Project.S01E10.1080p.WEB.h264-ASCENDANCE.mkv ~ 1.499 GiB
Marvels.Hero.Project.S01E11.1080p.WEB.h264-ASCENDANCE.mkv ~ 1.416 GiB
Marvels.Hero.Project.S01E12.1080p.WEB.h264-ASCENDANCE.mkv ~ 1.420 GiB
Marvels.Hero.Project.S01E13.1080p.WEB.h264-ASCENDANCE.mkv ~ 1.462 GiB
Marvels.Hero.Project.S01E14.1080p.WEB.h264-ASCENDANCE.mkv ~ 1.434 GiB
Marvels.Hero.Project.S01E15.1080p.WEB.h264-ASCENDANCE.mkv ~ 1.421 GiB
Marvels.Hero.Project.S01E16.1080p.WEB.h264-ASCENDANCE.mkv ~ 1.383 GiB
Marvels.Hero.Project.S01E17.1080p.WEB.h264-ASCENDANCE.mkv ~ 1.501 GiB
Marvels.Hero.Project.S01E18.1080p.WEB.h264-ASCENDANCE.mkv ~ 1.385 GiB
Marvels.Hero.Project.S01E19.1080p.WEB.h264-ASCENDANCE.mkv ~ 1.511 GiB
Marvels.Hero.Project.S01E20.1080p.WEB.h264-ASCENDANCE.mkv ~ 1.529 GiB
MediaInfo
General
Unique ID : 44051107894915292654415052663804855763 (0x2123EF4D997B8B94E489B989D02305D3)
Complete name : Marvels.Hero.Project.S01E20.1080p.WEB.h264-ASCENDANCE.mkv
Format : Matroska
Format version : Version 4
File size : 1.53 GiB
Duration : 27 min 31 s
Overall bit rate mode : Variable
Overall bit rate : 7 955 kb/s
Movie name : Marvels.Hero.Project.S01E20.1080p.WEB.h264-ASCENDANCE
Encoded date : UTC 2020-03-27 18:57:06
Writing application : mkvmerge v32.0.0 (‘Astral Progressions’) 32-bit
Writing library : libebml v1.3.7 + libmatroska v1.5.0

Video
ID : 1
Format : AVC
Format/Info : Advanced Video Codec
Format profile : [email protected]
Format settings : CABAC / 4 Ref Frames
Format settings, CABAC : Yes
Format settings, Reference frames : 4 frames
Codec ID : V_MPEG4/ISO/AVC
Duration : 27 min 30 s
Bit rate mode : Variable
Bit rate : 7 700 kb/s
Maximum bit rate : 12.7 Mb/s
Width : 1 920 pixels
Height : 1 080 pixels
Display aspect ratio : 16:9
Frame rate mode : Constant
Frame rate : 23.976 (24000/1001) FPS
Color space : YUV
Chroma subsampling : 4:2:0
Bit depth : 8 bits
Scan type : Progressive
Bits/(Pixel*Frame) : 0.155
Stream size : 1.48 GiB (97%)
Default : Yes
Forced : No
Color range : Limited
Color primaries : BT.709
Transfer characteristics : BT.709
Matrix coefficients : BT.709

Audio
ID : 2
Format : E-AC-3
Format/Info : Enhanced AC-3
Commercial name : Dolby Digital Plus
Codec ID : A_EAC3
Duration : 27 min 31 s
Bit rate mode : Constant
Bit rate : 256 kb/s
Channel(s) : 6 channels
Channel layout : L R C LFE Ls Rs
Sampling rate : 48.0 kHz
Frame rate : 31.250 FPS (1536 SPF)
Compression mode : Lossy
Stream size : 50.4 MiB (3%)
Title : English
Language : English
Service kind : Complete Main
Default : Yes
Forced : No

Direct Link Download

Leave a Reply

Your email address will not be published.