Land Of The Far North S01 720p NOW WEBRip AAC2 0 x264-playWEB

N/A
Download

Land Of The Far North S01 720p NOW WEBRip AAC2 0 x264-playWEB – 3.61 GB
part1.rar | N/AxN/A | N/A | N/A at N/A
Links: RapidGatorMultiUP (Google Drive, Uptobox, 1fichier)
Pass: #r8isyf5b!

Episode List
Land.Of.The.Far.North.S01E01.720p.NOW.WEB-DL.AAC2.0.H.264-playWEB.mkv ~ 1.818 GiB
Land.Of.The.Far.North.S01E02.720p.NOW.WEB-DL.AAC2.0.H.264-playWEB.mkv ~ 1.790 GiB
MediaInfo
General
Unique ID : 337015067939779006196244788211407527949 (0xFD8ABDB916EAA30C80B69238D576200D)
Complete name : Land.Of.The.Far.North.S01E02.720p.NOW.WEB-DL.AAC2.0.H.264-playWEB.mkv
Format : Matroska
Format version : Version 4
File size : 1.79 GiB
Duration : 51 min 38 s
Overall bit rate : 4 962 kb/s
Movie name : Land.Of.The.Far.North.S01E02.720p.NOW.WEB-DL.AAC2.0.H.264-playWEB
Encoded date : UTC 2022-04-15 21:05:07
Writing application : mkvmerge v67.0.0 (‘Under Stars’) 64-bit
Writing library : libebml v1.4.2 + libmatroska v1.6.4

Video
ID : 1
Format : AVC
Format/Info : Advanced Video Codec
Format profile : [email protected]
Format settings : CABAC / 2 Ref Frames
Format settings, CABAC : Yes
Format settings, Reference frames : 2 frames
Format settings, GOP : M=3, N=50
Codec ID : V_MPEG4/ISO/AVC
Duration : 51 min 38 s
Bit rate mode : Constant
Bit rate : 4 830 kb/s
Width : 1 280 pixels
Height : 720 pixels
Display aspect ratio : 16:9
Frame rate mode : Constant
Frame rate : 25.000 FPS
Color space : YUV
Chroma subsampling : 4:2:0
Bit depth : 8 bits
Scan type : Progressive
Bits/(Pixel*Frame) : 0.210
Stream size : 1.74 GiB (97%)
Language : English
Default : Yes
Forced : No

Audio
ID : 2
Format : AAC LC
Format/Info : Advanced Audio Codec Low Complexity
Codec ID : A_AAC-2
Duration : 51 min 38 s
Bit rate : 128 kb/s
Channel(s) : 2 channels
Channel layout : L R
Sampling rate : 48.0 kHz
Frame rate : 46.875 FPS (1024 SPF)
Compression mode : Lossy
Stream size : 47.3 MiB (3%)
Language : English
Default : Yes
Forced : No

Text #1
ID : 3
Format : UTF-8
Codec ID : S_TEXT/UTF8
Codec ID/Info : UTF-8 Plain Text
Duration : 50 min 58 s
Bit rate : 93 b/s
Count of elements : 689
Stream size : 34.9 KiB (0%)
Language : English
Default : No
Forced : No

Text #2
ID : 4
Format : UTF-8
Codec ID : S_TEXT/UTF8
Codec ID/Info : UTF-8 Plain Text
Duration : 50 min 58 s
Bit rate : 93 b/s
Count of elements : 690
Stream size : 35.0 KiB (0%)
Title : SDH
Language : English
Default : No
Forced : No

Direct Link Download

Leave a Reply

Your email address will not be published.