Here Comes Peter Cottontail 1971 1080p BRRip H264 AAC-RBG

Peter Cottontail wants to be the #1 chief Easter Bunny, and everyone in April Valley agrees…except for Evil Irontail. Peter must deliver more eggs than this archrival to earn the top spot…and save Easter for children everywhere!
Download

Here Comes Peter Cottontail 1971 1080p BRRip H264 AAC-RBG – 838.82 MB
rar | N/AxN/A | N/A | N/A at N/A
Links: RapidGatorMultiUP (Google Drive, Uptobox, 1fichier)
Pass: $)e8zu21ais8jf

MediaInfo
General
Complete name : Here.Comes.Peter.Cottontail.1971.1080p.BRRip.H264.AAC-RBG.mp4
Format : MPEG-4
Format profile : Base Media
Codec ID : isom (isom/iso2/avc1/mp41)
File size : 838 MiB
Duration : 42 min 54 s
Overall bit rate : 2 732 kb/s
Movie name : Here.Comes.Peter.Cottontail.1971.1080p.BluRay.H264.AAC-RARBG
Encoded date : UTC 2021-01-02 17:30:14
Tagged date : UTC 2021-01-02 17:30:14
Writing application : Lavf58.20.100
Comment : Here.Comes.Peter.Cottontail.1971.1080p.BluRay.H264.AAC-RARBG

Video
ID : 1
Format : AVC
Format/Info : Advanced Video Codec
Format profile : [email protected]
Format settings : CABAC / 4 Ref Frames
Format settings, CABAC : Yes
Format settings, Reference frames : 4 frames
Codec ID : avc1
Codec ID/Info : Advanced Video Coding
Duration : 42 min 54 s
Bit rate : 2 500 kb/s
Width : 1 440 pixels
Height : 1 080 pixels
Display aspect ratio : 4:3
Frame rate mode : Constant
Frame rate : 23.976 (23976/1000) FPS
Color space : YUV
Chroma subsampling : 4:2:0
Bit depth : 8 bits
Scan type : Progressive
Bits/(Pixel*Frame) : 0.067
Stream size : 768 MiB (92%)
Writing library : x264 core 152 r2851M ba24899
Encoding settings : cabac=1 / ref=4 / deblock=1:-1:-1 / analyse=0x3:0x113 / me=umh / subme=9 / psy=1 / psy_rd=1.00:0.15 / mixed_ref=1 / me_range=24 / chroma_me=1 / trellis=2 / 8x8dct=1 / cqm=0 / deadzone=21,11 / fast_pskip=1 / chroma_qp_offset=-3 / threads=16 / lookahead_threads=4 / sliced_threads=0 / nr=0 / decimate=1 / interlaced=0 / bluray_compat=0 / constrained_intra=0 / bframes=3 / b_pyramid=2 / b_adapt=2 / b_bias=0 / direct=3 / weightb=1 / open_gop=0 / weightp=2 / keyint=250 / keyint_min=25 / scenecut=40 / intra_refresh=0 / rc_lookahead=50 / rc=2pass / mbtree=1 / bitrate=2500 / ratetol=1.0 / qcomp=0.60 / qpmin=0 / qpmax=69 / qpstep=4 / cplxblur=20.0 / qblur=0.5 / vbv_maxrate=31250 / vbv_bufsize=31250 / nal_hrd=none / filler=0 / ip_ratio=1.40 / aq=3:1.00
Encoded date : UTC 2021-01-02 17:30:14
Tagged date : UTC 2021-01-02 17:30:14
Codec configuration box : avcC

Audio
ID : 2
Format : AAC LC
Format/Info : Advanced Audio Codec Low Complexity
Codec ID : mp4a-40-2
Duration : 42 min 54 s
Bit rate mode : Constant
Bit rate : 224 kb/s
Channel(s) : 2 channels
Channel layout : L R
Sampling rate : 48.0 kHz
Frame rate : 46.875 FPS (1024 SPF)
Compression mode : Lossy
Stream size : 68.8 MiB (8%)
Language : English
Default : Yes
Alternate group : 1
Encoded date : UTC 2021-01-02 17:30:14
Tagged date : UTC 2021-01-02 17:30:14

Direct Link Download

Leave a Reply

Your email address will not be published.