Dinosaurs The Final Day with David Attenborough 2022 720p AMZN WEB-DL DDP2 0 H 264-TEPES

David Attenborough brings to life, in unprecedented detail, the last days of the dinosaurs. Palaeontologist Robert DePalma has made an incredible discovery in a prehistoric graveyard: fossilised creatures, astonishingly well preserved, that could help change our understanding of the last days of the dinosaurs. Evidence from his site records the day when an asteroid bigger than Mount Everest devastated our planet and caused the extinction of the dinosaurs. Based on brand new evidence, witness the catastrophic events of that day play out minute by minute.
Download

Dinosaurs The Final Day with David Attenborough 2022 720p AMZN WEB-DL DDP2 0 H 264-TEPES – 2.82 GB
mkv | 1280×720 | 4600 Kbps | A_EAC3 at 224 Kbps
Links: RapidGatorMultiUP (Google Drive, Uptobox, 1fichier)
Pass: 0yo4pkb*9yv9<y

MediaInfo
General
Unique ID : 179996310916894766044997824590316203593 (0x876A074C42F23C2AD3E75DA663E26E49)
Complete name : Dinosaurs.The.Final.Day.with.David.Attenborough.2022.720p.AMZN.WEB-DL.DDP2.0.H.264-TEPES.mkv
Format : Matroska
Format version : Version 4
File size : 2.82 GiB
Duration : 1 h 27 min
Overall bit rate mode : Constant
Overall bit rate : 4 601 kb/s
Writing application : mkvmerge v67.0.0 (‘Under Stars’) 64-bit
Writing library : libebml v1.4.2 + libmatroska v1.6.4

Video
ID : 1
Format : AVC
Format/Info : Advanced Video Codec
Format profile : [email protected]
Format settings : CABAC / 4 Ref Frames
Format settings, CABAC : Yes
Format settings, Reference frames : 4 frames
Codec ID : V_MPEG4/ISO/AVC
Duration : 1 h 27 min
Bit rate mode : Constant
Bit rate : 4 375 kb/s
Nominal bit rate : 6 000 kb/s
Width : 1 280 pixels
Height : 720 pixels
Display aspect ratio : 16:9
Frame rate mode : Constant
Frame rate : 25.000 FPS
Color space : YUV
Chroma subsampling : 4:2:0
Bit depth : 8 bits
Scan type : Progressive
Bits/(Pixel*Frame) : 0.190
Stream size : 2.68 GiB (95%)
Default : Yes
Forced : No
Color range : Limited
Color primaries : BT.709
Transfer characteristics : BT.709
Matrix coefficients : BT.709

Audio
ID : 2
Format : E-AC-3
Format/Info : Enhanced AC-3
Commercial name : Dolby Digital Plus
Codec ID : A_EAC3
Duration : 1 h 27 min
Bit rate mode : Constant
Bit rate : 224 kb/s
Channel(s) : 2 channels
Channel layout : L R
Sampling rate : 48.0 kHz
Frame rate : 31.250 FPS (1536 SPF)
Compression mode : Lossy
Stream size : 140 MiB (5%)
Language : English
Service kind : Complete Main
Default : Yes
Forced : No

Menu
01:27:32.000 : Credits

Direct Link Download

Leave a Reply

Your email address will not be published.