Big Cats about the House S01 720p iP WEBRip AAC2 0 x264-playWEB

Documentary series following life at the Big Cat Sanctuary in Kent, run by Giles Clark to support big cat conservation
Download

Big Cats about the House S01 720p iP WEBRip AAC2 0 x264-playWEB – 6.42 GB
part1.rar | N/AxN/A | N/A | N/A at N/A
Links: RapidGatorMultiUP (Google Drive, Uptobox, 1fichier)
Pass: ydw,c2k+b6

Episode List
Big.Cats.about.the.House.S01E01.720p.iP.WEB-DL.AAC2.0.H.264-playWEB.mkv ~ 2.145 GiB
Big.Cats.about.the.House.S01E02.720p.iP.WEB-DL.AAC2.0.H.264-playWEB.mkv ~ 2.145 GiB
Big.Cats.about.the.House.S01E03.720p.iP.WEB-DL.AAC2.0.H.264-playWEB.mkv ~ 2.133 GiB
MediaInfo
General
Unique ID : 42522400562294917426680159856424540749 (0x1FFD843665585177CF643E285E325A4D)
Complete name : Big.Cats.about.the.House.S01E03.720p.iP.WEB-DL.AAC2.0.H.264-playWEB.mkv
Format : Matroska
Format version : Version 4
File size : 2.13 GiB
Duration : 59 min 0 s
Overall bit rate mode : Variable
Overall bit rate : 5 177 kb/s
Movie name : Big.Cats.about.the.House.S01E03.720p.iP.WEB-DL.AAC2.0.H.264-playWEB
Encoded date : UTC 2022-04-16 04:50:09
Writing application : mkvmerge v66.0.0 (‘Josie’) 64-bit
Writing library : libebml v1.4.2 + libmatroska v1.6.4

Video
ID : 1
Format : AVC
Format/Info : Advanced Video Codec
Format profile : [email protected]
Format settings : CABAC / 4 Ref Frames
Format settings, CABAC : Yes
Format settings, Reference frames : 4 frames
Codec ID : V_MPEG4/ISO/AVC
Duration : 59 min 0 s
Bit rate mode : Variable
Bit rate : 5 045 kb/s
Maximum bit rate : 7 605 kb/s
Width : 1 280 pixels
Height : 720 pixels
Display aspect ratio : 16:9
Frame rate mode : Constant
Frame rate : 50.000 FPS
Color space : YUV
Chroma subsampling : 4:2:0
Bit depth : 8 bits
Scan type : Progressive
Bits/(Pixel*Frame) : 0.109
Stream size : 2.08 GiB (97%)
Language : English
Default : Yes
Forced : No
Color range : Limited
Color primaries : BT.709
Transfer characteristics : BT.709
Matrix coefficients : BT.709

Audio
ID : 2
Format : AAC LC
Format/Info : Advanced Audio Codec Low Complexity
Codec ID : A_AAC-2
Duration : 59 min 0 s
Bit rate : 128 kb/s
Channel(s) : 2 channels
Channel layout : L R
Sampling rate : 48.0 kHz
Frame rate : 46.875 FPS (1024 SPF)
Compression mode : Lossy
Stream size : 54.0 MiB (2%)
Language : English
Default : Yes
Forced : No

Text #1
ID : 3
Format : UTF-8
Codec ID : S_TEXT/UTF8
Codec ID/Info : UTF-8 Plain Text
Duration : 58 min 27 s
Bit rate : 93 b/s
Count of elements : 897
Stream size : 39.9 KiB (0%)
Language : English
Default : No
Forced : No

Text #2
ID : 4
Format : UTF-8
Codec ID : S_TEXT/UTF8
Codec ID/Info : UTF-8 Plain Text
Duration : 58 min 27 s
Bit rate : 93 b/s
Count of elements : 897
Stream size : 40.0 KiB (0%)
Title : SDH
Language : English
Default : No
Forced : No

Direct Link Download

Leave a Reply

Your email address will not be published.