X 2022 2022 1080p WEB-DL DDPA5 1 H 264-EVO

In 1979, a group of young filmmakers set out to make an adult film in rural Texas, but when their reclusive, elderly hosts catch them in the act, the cast find themselves fighting for their lives.
Download

X 2022 2022 1080p WEB-DL DDPA5 1 H 264-EVO – 5.52 GB
mkv | 1920×1006 | 7433 Kbps | A_EAC3 at 768 Kbps
Links: RapidGatorMultiUP (Google Drive, Uptobox, 1fichier)
Pass: >gs[52m4l2zawd

MediaInfo
General
Unique ID : 55514676219262622190029660997986866700 (0x29C3BCDBC41CA781B074D500A3A8D60C)
Complete name : X.2022.2022.1080p.WEB-DL.DDP5.1.Atmos.H.264-EVO.mkv
Format : Matroska
Format version : Version 4
File size : 5.52 GiB
Duration : 1 h 46 min
Overall bit rate : 7 433 kb/s
Encoded date : UTC 2022-04-14 04:16:28
Writing application : mkvmerge v63.0.0 (‘Everything’) 64-bit
Writing library : libebml v1.4.2 + libmatroska v1.6.4

Video
ID : 1
Format : AVC
Format/Info : Advanced Video Codec
Format profile : [email protected]
Format settings : CABAC / 4 Ref Frames
Format settings, CABAC : Yes
Format settings, Reference frames : 4 frames
Codec ID : V_MPEG4/ISO/AVC
Duration : 1 h 46 min
Bit rate : 6 663 kb/s
Width : 1 920 pixels
Height : 1 006 pixels
Display aspect ratio : 1.909
Frame rate mode : Constant
Frame rate : 23.976 (24000/1001) FPS
Color space : YUV
Chroma subsampling : 4:2:0
Bit depth : 8 bits
Scan type : Progressive
Bits/(Pixel*Frame) : 0.144
Stream size : 4.95 GiB (90%)
Default : Yes
Forced : No
Color range : Limited
Color primaries : BT.709
Transfer characteristics : BT.709
Matrix coefficients : BT.709

Audio
ID : 2
Format : E-AC-3 JOC
Format/Info : Enhanced AC-3 with Joint Object Coding
Commercial name : Dolby Digital Plus with Dolby Atmos
Codec ID : A_EAC3
Duration : 1 h 46 min
Bit rate mode : Constant
Bit rate : 768 kb/s
Channel(s) : 6 channels
Channel layout : L R C LFE Ls Rs
Sampling rate : 48.0 kHz
Frame rate : 31.250 FPS (1536 SPF)
Compression mode : Lossy
Stream size : 584 MiB (10%)
Language : English
Service kind : Complete Main
Default : Yes
Forced : No
Complexity index : 16
Number of dynamic objects : 15
Bed channel count : 1 channel
Bed channel configuration : LFE

Direct Link Download

Leave a Reply

Your email address will not be published.