The Mule 2014 RERIP 1080p BluRay X264-CADAVER

In 1983, a naive man is detained by Australian Federal Police with lethal narcotics hidden in his stomach. After being apprehended, ‘The Mule’ makes a desperate choice… to defy his bodily functions and withhold the evidence – literally.
Download

The Mule 2014 RERIP 1080p BluRay X264-CADAVER – 8.75 GB
part1.rar | N/AxN/A | N/A | N/A at N/A
Links: RapidGatorMultiUP (Google Drive, Uptobox, 1fichier)
Pass: oy;97grm1$b0zt

MediaInfo
General
Unique ID : 131105549256964970991670327896368984867 (0x62A202A442F56D52375C0C3D9C77B323)
Complete name : The.Mule.2014.RERIP.1080p.BluRay.X264-CADAVER.mkv
Format : Matroska
Format version : Version 4
File size : 8.75 GiB
Duration : 1 h 42 min
Overall bit rate : 12.2 Mb/s
Encoded date : UTC 2014-12-07 21:23:14
Writing application : mkvmerge v7.3.0 (‘Nouages’) 64bit built on Nov 27 2014 22:32:31
Writing library : libebml v1.3.0 + libmatroska v1.4.1

Video
ID : 1
Format : AVC
Format/Info : Advanced Video Codec
Format profile : [email protected]
Format settings : CABAC / 5 Ref Frames
Format settings, CABAC : Yes
Format settings, Reference frames : 5 frames
Codec ID : V_MPEG4/ISO/AVC
Duration : 1 h 42 min
Bit rate : 10.7 Mb/s
Width : 1 920 pixels
Height : 808 pixels
Display aspect ratio : 2.40:1
Frame rate mode : Constant
Frame rate : 24.000 FPS
Color space : YUV
Chroma subsampling : 4:2:0
Bit depth : 8 bits
Scan type : Progressive
Bits/(Pixel*Frame) : 0.287
Stream size : 7.49 GiB (86%)
Writing library : x264 core 142 r2491 24e4fed
Encoding settings : cabac=1 / ref=5 / deblock=1:-3:-3 / analyse=0x3:0x113 / me=umh / subme=11 / psy=1 / psy_rd=1.05:0.00 / mixed_ref=1 / me_range=24 / chroma_me=1 / trellis=2 / 8x8dct=1 / cqm=0 / deadzone=6,6 / fast_pskip=0 / chroma_qp_offset=-2 / threads=12 / lookahead_threads=3 / sliced_threads=0 / nr=0 / decimate=0 / interlaced=0 / bluray_compat=0 / constrained_intra=0 / bframes=10 / b_pyramid=2 / b_adapt=2 / b_bias=0 / direct=3 / weightb=1 / open_gop=0 / weightp=2 / keyint=250 / keyint_min=24 / scenecut=40 / intra_refresh=0 / rc=2pass / mbtree=0 / bitrate=10695 / ratetol=1.0 / qcomp=0.80 / qpmin=0 / qpmax=69 / qpstep=4 / cplxblur=20.0 / qblur=0.5 / ip_ratio=1.10 / pb_ratio=1.10 / aq=1:0.70
Language : English
Default : Yes
Forced : No

Audio
ID : 2
Format : DTS
Format/Info : Digital Theater Systems
Codec ID : A_DTS
Duration : 1 h 42 min
Bit rate mode : Constant
Bit rate : 1 509 kb/s
Channel(s) : 6 channels
Channel layout : C L R Ls Rs LFE
Sampling rate : 48.0 kHz
Frame rate : 93.750 FPS (512 SPF)
Bit depth : 24 bits
Compression mode : Lossy
Stream size : 1.08 GiB (12%)
Language : English
Default : Yes
Forced : No

Menu
00:00:00.000 : 00:00:00.000
00:06:50.208 : 00:06:50.208
00:13:49.083 : 00:13:49.083
00:20:41.958 : 00:20:41.958
00:27:58.083 : 00:27:58.083
00:35:03.875 : 00:35:03.875
00:42:09.292 : 00:42:09.292
00:48:45.208 : 00:48:45.208
00:57:17.667 : 00:57:17.667
01:04:44.208 : 01:04:44.208
01:24:59.542 : 01:24:59.542
01:37:34.375 : 01:37:34.375

Direct Link Download

Leave a Reply

Your email address will not be published.