The Good Lie 2014 LIMITED 1080p BluRay x264-GECKOS

A young refugee of the Sudanese Civil War who wins a lottery for relocation to the United States with three other lost boys. Encountering the modern world for the first time, they develop an unlikely friendship with a brash American woman assigned to help them, but the young man struggles to adjust to this new life and his feelings of guilt about the brother he left behind.
Download

The Good Lie 2014 LIMITED 1080p BluRay x264-GECKOS – 7.94 GB
part1.rar | N/AxN/A | N/A | N/A at N/A
Links: RapidGatorMultiUP (Google Drive, Uptobox, 1fichier)
Pass: 80y.8!gsb6nzfh

MediaInfo
General
Unique ID : 175687299932002989637998839085745267859 (0x842C24A75CF5BAF796FEED4673936493)
Complete name : The.Good.Lie.2014.LIMITED.1080p.BluRay.x264-GECKOS.mkv
Format : Matroska
Format version : Version 4
File size : 7.94 GiB
Duration : 1 h 49 min
Overall bit rate : 10.3 Mb/s
Encoded date : UTC 2014-12-08 22:34:56
Writing application : mkvmerge v6.2.0 (‘Promised Land’) built on Apr 28 2013 12:22:01
Writing library : libebml v1.3.0 + libmatroska v1.4.0

Video
ID : 1
Format : AVC
Format/Info : Advanced Video Codec
Format profile : [email protected]
Format settings : CABAC / 4 Ref Frames
Format settings, CABAC : Yes
Format settings, Reference frames : 4 frames
Codec ID : V_MPEG4/ISO/AVC
Duration : 1 h 49 min
Bit rate : 8 826 kb/s
Width : 1 920 pixels
Height : 1 080 pixels
Display aspect ratio : 16:9
Frame rate mode : Constant
Frame rate : 23.976 FPS
Color space : YUV
Chroma subsampling : 4:2:0
Bit depth : 8 bits
Scan type : Progressive
Bits/(Pixel*Frame) : 0.178
Stream size : 6.62 GiB (83%)
Writing library : x264 core 142 r2479 dd79a61
Encoding settings : cabac=1 / ref=4 / deblock=1:0:0 / analyse=0x3:0x133 / me=umh / subme=7 / psy=1 / psy_rd=1.00:0.00 / mixed_ref=1 / me_range=16 / chroma_me=1 / trellis=1 / 8x8dct=1 / cqm=0 / deadzone=21,11 / fast_pskip=0 / chroma_qp_offset=-2 / threads=60 / lookahead_threads=8 / sliced_threads=0 / nr=0 / decimate=1 / interlaced=0 / bluray_compat=0 / constrained_intra=0 / bframes=3 / b_pyramid=2 / b_adapt=1 / b_bias=0 / direct=1 / weightb=1 / open_gop=0 / weightp=2 / keyint=250 / keyint_min=23 / scenecut=40 / intra_refresh=0 / rc_lookahead=40 / rc=2pass / mbtree=1 / bitrate=8826 / ratetol=1.0 / qcomp=0.60 / qpmin=0 / qpmax=69 / qpstep=4 / cplxblur=20.0 / qblur=0.5 / ip_ratio=1.40 / aq=1:1.00
Language : English
Default : Yes
Forced : No

Audio
ID : 2
Format : DTS
Format/Info : Digital Theater Systems
Codec ID : A_DTS
Duration : 1 h 49 min
Bit rate mode : Constant
Bit rate : 1 509 kb/s
Channel(s) : 6 channels
Channel layout : C L R Ls Rs LFE
Sampling rate : 48.0 kHz
Frame rate : 93.750 FPS (512 SPF)
Bit depth : 24 bits
Compression mode : Lossy
Stream size : 1.16 GiB (15%)
Language : English
Default : Yes
Forced : No

Menu
00:00:00.000 : 00:00:00.000
00:09:48.922 : 00:09:48.922
00:19:44.683 : 00:19:44.683
00:29:59.673 : 00:29:59.673
00:39:51.973 : 00:39:51.973
00:50:28.817 : 00:50:28.817
00:59:32.944 : 00:59:32.944
01:10:06.786 : 01:10:06.786
01:19:14.583 : 01:19:14.583
01:30:26.171 : 01:30:26.171
01:40:44.538 : 01:40:44.538
01:43:16.482 : 01:43:16.482

Direct Link Download

Leave a Reply

Your email address will not be published.