The Flash 2014 S08E11 1080p WEB h264-GOSSIP

After a particle accelerator causes a freak storm, CSI Investigator Barry Allen is struck by lightning and falls into a coma. Months later he awakens with the power of super speed, granting him the ability to move through Central City like an unseen guardian angel. Though initially excited by his newfound powers, Barry is shocked to discover he is not the only “meta-human” who was created in the wake of the accelerator explosion — and not everyone is using their new powers for good. Barry partners with S.T.A.R. Labs and dedicates his life to protect the innocent. For now, only a few close friends and associates know that Barry is literally the fastest man alive, but it won’t be long before the world learns what Barry Allen has become…The Flash.
Download

The Flash 2014 S08E11 1080p WEB h264-GOSSIP – 2.71 GB
mkv | 1920×1080 | 9174 Kbps | A_EAC3 at 640 Kbps
Links: RapidGatorMultiUP (Google Drive, Uptobox, 1fichier)
Pass: !av9(xg2ii

MediaInfo
General
Unique ID : 293059214191164406952455664257956469911 (0xDC7926CFD7DC50A12CBABC3BC1F65C97)
Complete name : The.Flash.2014.S08E11.1080p.WEB.h264-GOSSIP.mkv
Format : Matroska
Format version : Version 4
File size : 2.71 GiB
Duration : 42 min 19 s
Overall bit rate : 9 175 kb/s
Encoded date : UTC 2022-04-14 04:02:00
Writing application : mkvmerge v52.0.0 (‘Secret For The Mad’) 64-bit
Writing library : libebml v1.4.2 + libmatroska v1.6.2

Video
ID : 1
Format : AVC
Format/Info : Advanced Video Codec
Format profile : [email protected]
Format settings : CABAC / 4 Ref Frames
Format settings, CABAC : Yes
Format settings, Reference frames : 4 frames
Codec ID : V_MPEG4/ISO/AVC
Duration : 42 min 19 s
Bit rate mode : Constant
Bit rate : 8 533 kb/s
Nominal bit rate : 10 000 kb/s
Width : 1 920 pixels
Height : 1 080 pixels
Display aspect ratio : 16:9
Frame rate mode : Constant
Frame rate : 23.976 (24000/1001) FPS
Color space : YUV
Chroma subsampling : 4:2:0
Bit depth : 8 bits
Scan type : Progressive
Bits/(Pixel*Frame) : 0.172
Stream size : 2.52 GiB (93%)
Language : English
Default : Yes
Forced : No
Color range : Limited
Color primaries : BT.709
Transfer characteristics : BT.709
Matrix coefficients : BT.709

Audio
ID : 2
Format : E-AC-3
Format/Info : Enhanced AC-3
Commercial name : Dolby Digital Plus
Codec ID : A_EAC3
Duration : 42 min 19 s
Bit rate mode : Constant
Bit rate : 640 kb/s
Channel(s) : 6 channels
Channel layout : L R C LFE Ls Rs
Sampling rate : 48.0 kHz
Frame rate : 31.250 FPS (1536 SPF)
Compression mode : Lossy
Stream size : 194 MiB (7%)
Language : English
Service kind : Complete Main
Default : Yes
Forced : No

Text
ID : 3
Format : UTF-8
Codec ID : S_TEXT/UTF8
Codec ID/Info : UTF-8 Plain Text
Duration : 42 min 11 s
Bit rate : 85 b/s
Count of elements : 881
Stream size : 26.3 KiB (0%)
Title : English
Language : English
Default : No
Forced : No

Direct Link Download

Leave a Reply

Your email address will not be published.