Street Fighter Assassins Fist 2014 1080p BluRay x264-SADPANDA

A multi-layered series that looks back to the formative years of Ryu and Ken as they live a traditional warrior’s life in secluded Japan. The boys are, unknowingly, the last practitioners of the ancient fighting style known as “Ansatsuken” (Assassin’s Fist). The series follows them as they learn about the mysterious past of their master, Goken, and the tragic, dark legacy of the Ansatsuken style. Can their destiny be changed, or will history repeat itself?
Download

Street Fighter Assassins Fist 2014 1080p BluRay x264-SADPANDA – 9.84 GB
part1.rar | N/AxN/A | N/A | N/A at N/A
Links: RapidGatorMultiUP (Google Drive, Uptobox, 1fichier)
Pass: 0982qvbmna{,iz

MediaInfo
General
Unique ID : 238829172201940899874520750949151091102 (0xB3ACD34F9F5E00C0B2B5C57347E1299E)
Complete name : Street.Fighter.Assassins.Fist.2014.1080p.BluRay.x264-SADPANDA.mkv
Format : Matroska
Format version : Version 4
File size : 9.84 GiB
Duration : 2 h 32 min
Overall bit rate : 9 238 kb/s
Encoded date : UTC 2014-12-13 13:29:01
Writing application : mkvmerge v7.1.0 (‘Good Love’) 64bit built on Jul 27 2014 13:06:55
Writing library : libebml v1.3.0 + libmatroska v1.4.1

Video
ID : 1
Format : AVC
Format/Info : Advanced Video Codec
Format profile : [email protected]
Format settings : CABAC / 5 Ref Frames
Format settings, CABAC : Yes
Format settings, Reference frames : 5 frames
Codec ID : V_MPEG4/ISO/AVC
Duration : 2 h 32 min
Bit rate : 8 598 kb/s
Width : 1 920 pixels
Height : 800 pixels
Display aspect ratio : 2.40:1
Frame rate mode : Constant
Frame rate : 24.000 FPS
Color space : YUV
Chroma subsampling : 4:2:0
Bit depth : 8 bits
Scan type : Progressive
Bits/(Pixel*Frame) : 0.233
Stream size : 9.15 GiB (93%)
Writing library : x264 core 142 r2491 24e4fed
Encoding settings : cabac=1 / ref=5 / deblock=1:0:0 / analyse=0x3:0x133 / me=umh / subme=8 / psy=1 / psy_rd=1.00:0.00 / mixed_ref=1 / me_range=16 / chroma_me=1 / trellis=1 / 8x8dct=1 / cqm=0 / deadzone=21,11 / fast_pskip=0 / chroma_qp_offset=-2 / threads=12 / lookahead_threads=2 / sliced_threads=0 / nr=0 / decimate=1 / interlaced=0 / bluray_compat=0 / constrained_intra=0 / bframes=3 / b_pyramid=2 / b_adapt=1 / b_bias=0 / direct=1 / weightb=1 / open_gop=0 / weightp=2 / keyint=250 / keyint_min=24 / scenecut=40 / intra_refresh=0 / rc_lookahead=40 / rc=2pass / mbtree=1 / bitrate=8598 / ratetol=1.0 / qcomp=0.60 / qpmin=0 / qpmax=69 / qpstep=4 / cplxblur=20.0 / qblur=0.5 / ip_ratio=1.40 / aq=1:1.00
Language : English
Default : Yes
Forced : No

Audio
ID : 2
Format : AC-3
Format/Info : Audio Coding 3
Commercial name : Dolby Digital
Codec ID : A_AC3
Duration : 2 h 32 min
Bit rate mode : Constant
Bit rate : 640 kb/s
Channel(s) : 2 channels
Channel layout : L R
Sampling rate : 48.0 kHz
Frame rate : 31.250 FPS (1536 SPF)
Compression mode : Lossy
Stream size : 698 MiB (7%)
Language : English
Service kind : Complete Main
Default : Yes
Forced : No

Text #1
ID : 3
Format : UTF-8
Codec ID : S_TEXT/UTF8
Codec ID/Info : UTF-8 Plain Text
Duration : 2 h 27 min
Bit rate : 20 b/s
Count of elements : 784
Stream size : 22.2 KiB (0%)
Title : ENGLISH-FORCED
Language : English
Default : Yes
Forced : No

Text #2
ID : 4
Format : UTF-8
Codec ID : S_TEXT/UTF8
Codec ID/Info : UTF-8 Plain Text
Duration : 2 h 31 min
Bit rate : 48 b/s
Count of elements : 1838
Stream size : 53.9 KiB (0%)
Title : ENGLISH
Language : English
Default : No
Forced : No

Direct Link Download

Leave a Reply

Your email address will not be published.