Reach Me 2014 1080p BluRay x264-ROVERS

Each member of a group of people has a connection to a self-help book authored by a reclusive former football coach.
Download

Reach Me 2014 1080p BluRay x264-ROVERS – 6.54 GB
part1.rar | N/AxN/A | N/A | N/A at N/A
Links: RapidGatorMultiUP (Google Drive, Uptobox, 1fichier)
Pass: akt2s5h8hj#[email protected]

MediaInfo
General
Unique ID : 182094013794593149686881268357835498382 (0x88FE0808EAD3086C842FA5C6DEABA38E)
Complete name : Reach.Me.2014.1080p.BluRay.x264-ROVERS.mkv
Format : Matroska
Format version : Version 4
File size : 6.54 GiB
Duration : 1 h 32 min
Overall bit rate : 10.2 Mb/s
Encoded date : UTC 2014-12-11 03:32:38
Writing application : mkvmerge v6.2.0 (‘Promised Land’) built on Apr 28 2013 12:22:01
Writing library : libebml v1.3.0 + libmatroska v1.4.0

Video
ID : 1
Format : AVC
Format/Info : Advanced Video Codec
Format profile : [email protected]
Format settings : CABAC / 5 Ref Frames
Format settings, CABAC : Yes
Format settings, Reference frames : 5 frames
Codec ID : V_MPEG4/ISO/AVC
Duration : 1 h 32 min
Bit rate : 9 535 kb/s
Width : 1 920 pixels
Height : 800 pixels
Display aspect ratio : 2.40:1
Frame rate mode : Constant
Frame rate : 23.976 (24000/1001) FPS
Color space : YUV
Chroma subsampling : 4:2:0
Bit depth : 8 bits
Scan type : Progressive
Bits/(Pixel*Frame) : 0.259
Stream size : 6.00 GiB (92%)
Writing library : x264 core 142 r2491 24e4fed
Encoding settings : cabac=1 / ref=5 / deblock=1:0:0 / analyse=0x3:0x133 / me=umh / subme=7 / psy=1 / psy_rd=1.00:0.00 / mixed_ref=1 / me_range=16 / chroma_me=1 / trellis=1 / 8x8dct=1 / cqm=0 / deadzone=21,11 / fast_pskip=0 / chroma_qp_offset=-2 / threads=18 / lookahead_threads=3 / sliced_threads=0 / nr=0 / decimate=1 / interlaced=0 / bluray_compat=0 / constrained_intra=0 / bframes=3 / b_pyramid=2 / b_adapt=1 / b_bias=0 / direct=1 / weightb=1 / open_gop=0 / weightp=2 / keyint=250 / keyint_min=23 / scenecut=40 / intra_refresh=0 / rc_lookahead=40 / rc=2pass / mbtree=1 / bitrate=9535 / ratetol=1.0 / qcomp=0.60 / qpmin=0 / qpmax=69 / qpstep=4 / cplxblur=20.0 / qblur=0.5 / ip_ratio=1.40 / aq=1:1.00
Language : English
Default : Yes
Forced : No

Audio
ID : 2
Format : AC-3
Format/Info : Audio Coding 3
Commercial name : Dolby Digital
Codec ID : A_AC3
Duration : 1 h 32 min
Bit rate mode : Constant
Bit rate : 640 kb/s
Channel(s) : 6 channels
Channel layout : L R C LFE Ls Rs
Sampling rate : 48.0 kHz
Frame rate : 31.250 FPS (1536 SPF)
Compression mode : Lossy
Stream size : 422 MiB (6%)
Language : English
Service kind : Complete Main
Default : Yes
Forced : No

Menu
00:00:00.000 : 00:00:00.000
00:08:26.798 : 00:08:26.798
00:15:45.403 : 00:15:45.403
00:23:27.448 : 00:23:27.448
00:29:37.859 : 00:29:37.859
00:37:21.406 : 00:37:21.406
00:48:45.005 : 00:48:45.005
00:57:04.129 : 00:57:04.129
01:04:23.568 : 01:04:23.568
01:10:32.437 : 01:10:32.437
01:16:08.147 : 01:16:08.147
01:24:53.630 : 01:24:53.630

Direct Link Download

Leave a Reply

Your email address will not be published.