Modern Family S06 1080p WEB h264-NiXON

The Pritchett-Dunphy-Tucker clan is a wonderfully large and blended family. They give us an honest and often hilarious look into the sometimes warm, sometimes twisted, embrace of the modern family.
Download

Modern Family S06 1080p WEB h264-NiXON – 44.4 GB
part01.rar | N/AxN/A | N/A | N/A at N/A
Links: RapidGatorMultiUP (Google Drive, Uptobox, 1fichier)
Pass: o5ltw%ky7+

Episode List
Modern.Family.S06E01.1080p.WEB.h264-NiXON.mkv ~ 1.836 GiB
Modern.Family.S06E02.1080p.WEB.h264-NiXON.mkv ~ 2.054 GiB
Modern.Family.S06E03.1080p.WEB.h264-NiXON.mkv ~ 1.965 GiB
Modern.Family.S06E04.1080p.WEB.h264-NiXON.mkv ~ 2.007 GiB
Modern.Family.S06E05.1080p.WEB.h264-NiXON.mkv ~ 1.869 GiB
Modern.Family.S06E06.1080p.WEB.h264-NiXON.mkv ~ 2.007 GiB
Modern.Family.S06E07.1080p.WEB.h264-NiXON.mkv ~ 1.819 GiB
Modern.Family.S06E08.1080p.WEB.h264-NiXON.mkv ~ 1.863 GiB
Modern.Family.S06E09.1080p.WEB.h264-NiXON.mkv ~ 1.755 GiB
Modern.Family.S06E10.1080p.WEB.h264-NiXON.mkv ~ 1.659 GiB
Modern.Family.S06E11.1080p.WEB.h264-NiXON.mkv ~ 1.554 GiB
Modern.Family.S06E12.1080p.WEB.h264-NiXON.mkv ~ 1.904 GiB
Modern.Family.S06E13.1080p.WEB.h264-NiXON.mkv ~ 2.007 GiB
Modern.Family.S06E14.1080p.WEB.h264-NiXON.mkv ~ 1.804 GiB
Modern.Family.S06E15.1080p.WEB.h264-NiXON.mkv ~ 2.081 GiB
Modern.Family.S06E16.1080p.WEB.h264-NiXON.mkv ~ 1.235 GiB
Modern.Family.S06E17.1080p.WEB.h264-NiXON.mkv ~ 1.773 GiB
Modern.Family.S06E18.1080p.WEB.h264-NiXON.mkv ~ 1.862 GiB
Modern.Family.S06E19.1080p.WEB.h264-NiXON.mkv ~ 1.772 GiB
Modern.Family.S06E20.1080p.WEB.h264-NiXON.mkv ~ 1.881 GiB
Modern.Family.S06E21.1080p.WEB.h264-NiXON.mkv ~ 1.924 GiB
Modern.Family.S06E22.1080p.WEB.h264-NiXON.mkv ~ 1.877 GiB
Modern.Family.S06E23.1080p.WEB.h264-NiXON.mkv ~ 1.905 GiB
Modern.Family.S06E24.1080p.WEB.h264-NiXON.mkv ~ 1.987 GiB
MediaInfo
General
Unique ID : 315775761570664482651919502709838188795 (0xED903311E96D102E748C2584027610FB)
Complete name : Modern.Family.S06E24.1080p.WEB.h264-NiXON.mkv
Format : Matroska
Format version : Version 4
File size : 1.99 GiB
Duration : 21 min 34 s
Overall bit rate : 13.2 Mb/s
Movie name : Modern.Family.S06E24.1080p.WEB.h264-NiXON
Encoded date : UTC 2020-08-21 20:32:50
Writing application : mkvmerge v48.0.0 (‘Fortress Around Your Heart’) 64-bit
Writing library : libebml v1.4.0 + libmatroska v1.6.0

Video
ID : 1
Format : AVC
Format/Info : Advanced Video Codec
Format profile : [email protected]
Format settings : CABAC / 4 Ref Frames
Format settings, CABAC : Yes
Format settings, Reference frames : 4 frames
Codec ID : V_MPEG4/ISO/AVC
Duration : 21 min 34 s
Bit rate : 12.5 Mb/s
Width : 1 920 pixels
Height : 1 080 pixels
Display aspect ratio : 16:9
Frame rate mode : Constant
Frame rate : 23.976 (24000/1001) FPS
Color space : YUV
Chroma subsampling : 4:2:0
Bit depth : 8 bits
Scan type : Progressive
Bits/(Pixel*Frame) : 0.252
Stream size : 1.89 GiB (95%)
Language : English
Default : Yes
Forced : No
Color range : Limited
Color primaries : BT.709
Transfer characteristics : BT.709
Matrix coefficients : BT.709

Audio
ID : 2
Format : E-AC-3
Format/Info : Enhanced AC-3
Commercial name : Dolby Digital Plus
Codec ID : A_EAC3
Duration : 21 min 34 s
Bit rate mode : Constant
Bit rate : 640 kb/s
Channel(s) : 6 channels
Channel layout : L R C LFE Ls Rs
Sampling rate : 48.0 kHz
Frame rate : 31.250 FPS (1536 SPF)
Compression mode : Lossy
Stream size : 98.8 MiB (5%)
Language : English
Service kind : Complete Main
Default : Yes
Forced : No

Text
ID : 3
Format : UTF-8
Codec ID : S_TEXT/UTF8
Codec ID/Info : UTF-8 Plain Text
Duration : 21 min 23 s
Bit rate : 110 b/s
Count of elements : 608
Stream size : 17.3 KiB (0%)
Title : English (SDH)
Language : English
Default : No
Forced : No

Direct Link Download

Leave a Reply

Your email address will not be published.