Kung Fu 2021 S02E06 720p HDTV x264-SYNCOPY

A quarter-life crisis causes a young Chinese-American woman to drop out of college and go on a life-changing journey to an isolated monastery in China. But when she returns to find her hometown overrun with crime and corruption, she uses her martial arts skills and Shaolin values to protect her community and bring criminals to justice.all while searching for the assassin who killed her Shaolin mentor and is now targeting her.
Download

Kung Fu 2021 S02E06 720p HDTV x264-SYNCOPY – 669.64 MB
mkv | 1280×640 | 2245 Kbps | A_AC3 at 384 Kbps
Links: RapidGatorMultiUP (Google Drive, Uptobox, 1fichier)
Pass: _}f2ornb7m

MediaInfo
General
Unique ID : 181187672157541788446257484655780726067 (0x884F79F12B5C92F3B5672C0A8CA48533)
Complete name : Kung.Fu.2021.S02E06.720p.HDTV.x264-SYNCOPY.mkv
Format : Matroska
Format version : Version 4
File size : 669 MiB
Duration : 41 min 39 s
Overall bit rate : 2 246 kb/s
Encoded date : UTC 2022-04-14 01:02:53
Writing application : mkvmerge v19.1.1 (‘Syncopy’) 64-bit
Writing library : libx264 + libebml + libmatroska + libfastrar

Video
ID : 1
Format : AVC
Format/Info : Advanced Video Codec
Format profile : [email protected]
Format settings : CABAC / 5 Ref Frames
Format settings, CABAC : Yes
Format settings, Reference frames : 5 frames
Codec ID : V_MPEG4/ISO/AVC
Duration : 41 min 39 s
Bit rate : 1 817 kb/s
Width : 1 280 pixels
Height : 640 pixels
Display aspect ratio : 2.000
Frame rate mode : Constant
Frame rate : 23.976 (24000/1001) FPS
Color space : YUV
Chroma subsampling : 4:2:0
Bit depth : 8 bits
Scan type : Progressive
Bits/(Pixel*Frame) : 0.093
Stream size : 541 MiB (81%)
Writing library : x264 core 164 r3094 bfc87b7
Encoding settings : cabac=1 / ref=5 / deblock=1:0:0 / analyse=0x3:0x113 / me=hex / subme=8 / psy=1 / psy_rd=1.00:0.00 / mixed_ref=1 / me_range=16 / chroma_me=1 / trellis=2 / 8x8dct=1 / cqm=0 / deadzone=21,11 / fast_pskip=1 / chroma_qp_offset=-2 / threads=18 / lookahead_threads=3 / sliced_threads=0 / nr=0 / decimate=1 / interlaced=0 / bluray_compat=0 / constrained_intra=0 / bframes=3 / b_pyramid=2 / b_adapt=1 / b_bias=0 / direct=3 / weightb=1 / open_gop=0 / weightp=2 / keyint=250 / keyint_min=23 / scenecut=40 / intra_refresh=0 / rc_lookahead=50 / rc=crf / mbtree=1 / crf=18.0 / qcomp=0.60 / qpmin=0 / qpmax=69 / qpstep=4 / ip_ratio=1.40 / aq=1:1.00
Default : Yes
Forced : No
Color range : Limited
Matrix coefficients : BT.709

Audio
ID : 2
Format : AC-3
Format/Info : Audio Coding 3
Commercial name : Dolby Digital
Codec ID : A_AC3
Duration : 41 min 39 s
Bit rate mode : Constant
Bit rate : 384 kb/s
Channel(s) : 6 channels
Channel layout : L R C LFE Ls Rs
Sampling rate : 48.0 kHz
Frame rate : 31.250 FPS (1536 SPF)
Compression mode : Lossy
Stream size : 114 MiB (17%)
Service kind : Complete Main
Default : Yes
Forced : No

Direct Link Download

Leave a Reply

Your email address will not be published.