I Am S01 1080p AMZN WEBRip DDP2 0 x264-squalor

A teen navigates the complexities of high school, family and her sexuality while dealing with new superpowers. Based on Charles Forsman’s graphic novel.
Download

I Am S01 1080p AMZN WEBRip DDP2 0 x264-squalor – 6.72 GB
part1.rar | N/AxN/A | N/A | N/A at N/A
Links: RapidGatorMultiUP (Google Drive, Uptobox, 1fichier)
Pass: by-3ji]i9c

Episode List
I.Am.S01E01.1080p.WEB-DL.DDP2.0.H.264-squalor.mkv ~ 1.980 GiB
I.Am.S01E02.1080p.WEB-DL.DDP2.0.H.264-squalor.mkv ~ 2.465 GiB
I.Am.S01E03.1080p.WEB-DL.DDP2.0.H.264-squalor.mkv ~ 2.279 GiB
MediaInfo
General
Unique ID : 158762276228378088092051735840445321901 (0x7770808F0C26C56A6E1FA75D10D652AD)
Complete name : I.Am.S01E03.1080p.WEB-DL.DDP2.0.H.264-squalor.mkv
Format : Matroska
Format version : Version 4
File size : 2.28 GiB
Duration : 47 min 4 s
Overall bit rate : 6 931 kb/s
Movie name : I.Am.S01E03.1080p.WEB-DL.DDP2.0.H.264-squalor
Encoded date : UTC 2022-04-13 14:00:26
Writing application : mkvmerge v45.0.0 (‘Heaven in Pennies’) 64-bit
Writing library : libebml v1.3.10 + libmatroska v1.5.2

Video
ID : 1
Format : AVC
Format/Info : Advanced Video Codec
Format profile : [email protected]
Format settings : CABAC / 4 Ref Frames
Format settings, CABAC : Yes
Format settings, Reference frames : 4 frames
Codec ID : V_MPEG4/ISO/AVC
Duration : 47 min 4 s
Bit rate mode : Constant
Bit rate : 6 705 kb/s
Nominal bit rate : 10 000 kb/s
Width : 1 920 pixels
Height : 1 080 pixels
Display aspect ratio : 16:9
Frame rate mode : Constant
Frame rate : 25.000 FPS
Color space : YUV
Chroma subsampling : 4:2:0
Bit depth : 8 bits
Scan type : Progressive
Bits/(Pixel*Frame) : 0.129
Stream size : 2.20 GiB (97%)
Default : Yes
Forced : No
Color range : Limited
Color primaries : BT.709
Transfer characteristics : BT.709
Matrix coefficients : BT.709

Audio
ID : 2
Format : E-AC-3
Format/Info : Enhanced AC-3
Commercial name : Dolby Digital Plus
Codec ID : A_EAC3
Duration : 47 min 4 s
Bit rate mode : Constant
Bit rate : 224 kb/s
Channel(s) : 2 channels
Channel layout : L R
Sampling rate : 48.0 kHz
Frame rate : 31.250 FPS (1536 SPF)
Compression mode : Lossy
Stream size : 75.4 MiB (3%)
Language : English
Service kind : Complete Main
Default : Yes
Forced : No

Text
ID : 3
Format : UTF-8
Codec ID : S_TEXT/UTF8
Codec ID/Info : UTF-8 Plain Text
Duration : 46 min 8 s
Bit rate : 63 b/s
Count of elements : 621
Stream size : 21.3 KiB (0%)
Language : English
Default : No
Forced : No

Direct Link Download

Leave a Reply

Your email address will not be published.