Foodgod S01 720p WEBRip AAC2 0 x264-REALiTYTV

Foodgod, a lifelong foodie and lover of the celebrity luxe life, travels to the hottest cities in America for the most over-the-top delicious dishes and food experiences. He hits the newest restaurants, legendary institutions and everything in between.
Download

Foodgod S01 720p WEBRip AAC2 0 x264-REALiTYTV – 1.67 GB
rar | N/AxN/A | N/A | N/A at N/A
Links: RapidGatorMultiUP (Google Drive, Uptobox, 1fichier)
Pass: h2ig%7x*pi

Episode List
Foodgod.S01E01.720p.WEBRip.x264-REALiTYTV.mkv ~ 471.0 MiB
Foodgod.S01E02.720p.WEBRip.x264-REALiTYTV.mkv ~ 401.1 MiB
Foodgod.S01E03.720p.WEBRip.x264-REALiTYTV.mkv ~ 434.6 MiB
Foodgod.S01E04.720p.WEBRip.x264-REALiTYTV.mkv ~ 403.2 MiB
MediaInfo
General
Unique ID : 319622540185964420332205278732471241679 (0xF0750FE6150CC0D5653BF1BAA9140BCF)
Complete name : Foodgod.S01E04.720p.WEBRip.x264-REALiTYTV.mkv
Format : Matroska
Format version : Version 4
File size : 403 MiB
Duration : 21 min 0 s
Overall bit rate : 2 683 kb/s
Movie name : Foodgod.S01E04.720p.WEBRip.x264-REALiTYTV
Encoded date : UTC 2022-04-05 17:58:06
Writing application : mkvmerge v61.0.0 (‘So’) 64-bit
Writing library : libebml v1.4.2 + libmatroska v1.6.4

Video
ID : 1
Format : AVC
Format/Info : Advanced Video Codec
Format profile : [email protected]
Format settings : CABAC / 8 Ref Frames
Format settings, CABAC : Yes
Format settings, Reference frames : 8 frames
Codec ID : V_MPEG4/ISO/AVC
Duration : 21 min 0 s
Bit rate : 2 554 kb/s
Width : 1 280 pixels
Height : 720 pixels
Display aspect ratio : 16:9
Frame rate mode : Constant
Frame rate : 23.976 (23976/1000) FPS
Color space : YUV
Chroma subsampling : 4:2:0
Bit depth : 8 bits
Scan type : Progressive
Bits/(Pixel*Frame) : 0.116
Stream size : 384 MiB (95%)
Writing library : x264 core 164 r3081 19856cc
Encoding settings : cabac=1 / ref=8 / deblock=1:2:-2 / analyse=0x3:0x133 / me=umh / subme=9 / psy=1 / psy_rd=1.00:0.00 / mixed_ref=1 / me_range=16 / chroma_me=1 / trellis=2 / 8x8dct=1 / cqm=0 / deadzone=21,11 / fast_pskip=1 / chroma_qp_offset=-2 / threads=18 / lookahead_threads=1 / sliced_threads=0 / nr=0 / decimate=1 / interlaced=0 / bluray_compat=0 / constrained_intra=0 / bframes=3 / b_pyramid=2 / b_adapt=2 / b_bias=0 / direct=3 / weightb=1 / open_gop=0 / weightp=2 / keyint=250 / keyint_min=23 / scenecut=40 / intra_refresh=0 / rc_lookahead=60 / rc=crf / mbtree=1 / crf=21.0 / qcomp=0.60 / qpmin=0 / qpmax=69 / qpstep=4 / ip_ratio=1.40 / aq=3:0.80
Language : English
Default : Yes
Forced : No
Color range : Limited
Matrix coefficients : BT.709

Audio
ID : 2
Format : AAC LC SBR
Format/Info : Advanced Audio Codec Low Complexity with Spectral Band Replication
Commercial name : HE-AAC
Format settings : Implicit
Codec ID : A_AAC-2
Duration : 21 min 0 s
Bit rate : 127 kb/s
Channel(s) : 2 channels
Channel layout : L R
Sampling rate : 48.0 kHz
Frame rate : 23.438 FPS (2048 SPF)
Compression mode : Lossy
Stream size : 19.0 MiB (5%)
Language : English
Default : Yes
Forced : No

Text
ID : 3
Format : UTF-8
Codec ID : S_TEXT/UTF8
Codec ID/Info : UTF-8 Plain Text
Duration : 20 min 54 s
Bit rate : 186 b/s
Count of elements : 587
Stream size : 28.6 KiB (0%)
Language : English
Default : No
Forced : No

Direct Link Download

Leave a Reply

Your email address will not be published.